Dodał: Uploader
Data dodania:
2016-09-10 01:15:05
Rozmiar: 46.09 GB
Ostat. aktualizacja:
2018-02-08 23:30:07
Seedów: 2
Peerów: 8


Komentarze: 0

Produkcja: USA
Gatunek: Akcja
Reżyseria: Justin Lin
Scenariusz: David Ayer, Chris Morgan

Opis:
Przestępca oraz tropiący go agent łączą swoje siły i przenikają do narkotykowego gangu, by dopaść jego przywódcę.

Obsada:
Vin Diesel : Dominic Toretto
Paul Walker : Brian O'Conner
Jordana Brewster : Mia Toretto
Michelle Rodriguez : Letty
Sung Kang : Han
Laz Alonso : Fenix

Dane techniczne:
DISC INFO:
Disc Size: 49,491,881,390 bytes
Protection: AACS
BD-Java: Yes
BDInfo: 0.5.8

PLAYLIST REPORT:
Name: 00000.MPLS
Length: 1:46:45.398 (h:m:s.ms)
Size: 30,203,037,696 bytes
Total Bitrate: 37.72 Mbps

VIDEO:
Codec Bitrate Description
----- ------- -----------
VC-1 Video 24244 kbps 1080p / 23.976 fps / 16:9 / Advanced Profile 3

AUDIO:
Codec Language Bitrate Description
----- -------- ------- -----------
DTS-HD Master Audio English 4173 kbps 5.1 / 48 kHz / 4173 kbps / 24-bit (DTS Core: 5.1 / 48 kHz / 1509 kbps / 24-bit)
DTS Audio Chinese 768 kbp
[...]

»[Zobacz cały opis



Dodał: Uploader
Data dodania:
2016-09-10 01:15:05
Rozmiar: 42.89 GB
Ostat. aktualizacja:
2016-09-10 01:15:05
Seedów: 0
Peerów: 0


Komentarze: 0

Joanna D'Arc - The Messenger: The Story of Joan of Arc (1999) [CEE.Blu-ray.1080p.AVC.Dolby-TrueHD] [Lektor i napisy PL]

Data premiery: 18 października 1999
Produkcja: Francja
Reżyseria: Luc Besson
Scenariusz: Luc Besson, Andrew Birkin
Muzyka: Eric Serra
Zdjęcia: Thierry Arbogast
Gatunek: dramat historyczny
Czas trwania: 158 min

Obsada:
Milla Jovovich - Joanna d'Arc
Dustin Hoffman - Sumienie
Faye Dunaway - Jolanta Aragońska
John Malkovich - król Karol VII
Tchéky Karyo - Jean de Dunois
Vincent Cassel - Gilles de Rais
Desmond Harrington - Jean d'Aulon
Richard Ridings - La Hire
Pascal Greggory - Jan II d'Alençon
Timothy West - Pierre Cauchon
Rab Affleck - Kompan
Edwin Apps - Biskup Rouen
Andrew Birkin - John Talbot
John Boswall - Stary Ksiądz

Screenshots:
http://www.blu-ray.com/movies/The-Messenger-The-Story-of-Joan-of-Arc-Blu-ray/1799/#Screenshots


Joanna D'Arc (ang. The Messenger: The Story of Joan of Arc) – francuski film fabularny z 1999 będący ekrani
[...]

»[Zobacz cały opis



Dodał: Uploader
Data dodania:
2016-09-10 01:15:05
Rozmiar: 9.84 GB
Ostat. aktualizacja:
2016-09-10 01:15:05
Seedów: 0
Peerów: 0


Komentarze: 0

Produkcja: USA
Gatunek: Thriller, Kryminał
Reżyseria: Paul Haggis
Scenariusz: Paul Haggis, Fred Cavaye

Opis:
Oddany mąż wkracza w niezwykle niebezpieczny świat i ryzykuje wszystko, by wyciągnąć z więzienia ukochaną żonę skazaną za morderstwo.

Obsada :
Russell Crowe ... John Brennan
Elizabeth Banks ... Lara Brennan
Michael Buie ... Mick Brennan
Moran Atias ... Erit
Remy Nozik ... Jenna
Toby Green ... Three Year Old Luke

Dane techniczne:
Video
ID : 1
Format : AVC
Format/Info : Advanced Video Codec
Format profile : [email protected]
Format settings, CABAC : Yes
Format settings, ReFrames : 5 frames
Codec ID : V_MPEG4/ISO/AVC
Duration : 2h 13mn
Bit rate : 9 069 Kbps
Width : 1 920 pixels
Height : 816 pixels
Display aspect ratio : 2.35:1
Frame rate mode : Constant
Frame rate : 23.976 fps
Color space : YUV
Chroma subsampling : 4:2:0
Bit depth : 8 bits
Scan type : Progressive
Bits/(Pixel*Frame) : 0.241
Stream size : 8.24 GiB (84%)
Writing li
[...]

»[Zobacz cały opis



Dodał: Uploader
Data dodania:
2016-09-10 01:15:05
Rozmiar: 2.00 GB
Ostat. aktualizacja:
2016-11-25 19:11:38
Seedów: 0
Peerów: 0


Komentarze: 0

"Co Gryzie Gilberta Grape'a"

Reżyseria: Lasse Hallström
Scenariusz: Peter Hedges
Gatunek: Dramat
Produkcja: USA
Premiera: 17 grudnia 1993 (Świat), 31 grudnia 1993 (Polska)
Muzyka: Alessandro Cicognini, Björn Isfält, Alan Parker
Zdjęcia: Sven Nykvist

Opis:

W małym miasteczku Endora w stanie Iowa w USA mieszka Gilbert Grape. Od kiedy w piwnicy powiesił się jego ojciec, jest zmuszony do zarabiania i opiekowania się całą rodziną: dwiema siostrami, chorobliwie otyłą matką i upośledzonym umysłowo bratem Arnim.
Pewnego dnia przez miasteczko przejeżdża konwój wozów z przyczepami campingowymi. Jeden z nich ulega awarii i jadąca w nim Becky wraz ze swoją babcią musi pozostać w nim nieco dłużej. Gilbert i Becky bardzo zbliżają się do siebie.

Obsada:

Johnny Depp - Gilbert Grape
Leonardo DiCaprio - Arnie Grape
Juliette Lewis - Becky
Mary Steenburgen - Betty Carver
Darlene Cates - Mama (Bonnie Grape)
Laura Harrington - Amy Grape
Mary Kate Schellhardt - Ellen Grape
John
[...]

»[Zobacz cały opis



Dodał: Uploader
Data dodania:
2016-09-10 01:15:05
Rozmiar: 6.91 GB
Ostat. aktualizacja:
2018-04-02 13:01:36
Seedów: 0
Peerów: 1


Komentarze: 0

...( Info )...

Do odtwarzania filmu zalecam najnowszy VLC PLAYER.

Produkcja: Francja
Gatunek: Sensacyjny
Reżyseria: Olivier Megaton
Scenariusz: Luc Besson, Robert Mark Kamen

http://www.imdb.com/title/tt1397280/
http://www.filmweb.pl/film/Uprowadzona+2-2012-539594

...( Opis )...

Bryan Mills, emerytowany agent CIA agent, który nie cofnął się przed niczym by uratować córkę Kim z rąk albańskich porywaczy. Tym razem zostaje porwany razem z żoną podczas rodzinnych wakacji w Stambule. Przy użyciu zaawansowanych technik znanych siłom specjalnym Brian stara się zapewnić bezpieczeństwo swojej rodzinie.

...( Obsada )...

Liam Neeson - Bryan Mills
Maggie Grace - Kim
Famke Janssen -Lenore
Leland Orser - Sam Jon Gries - Casey

...( Dane Techniczne )...

MUX : Shadow
Release Date : 02.06.2015

General      : Taken 2.2012. PL.1080p.BluRay.AC3.x264-Shadow..mkv

Format      : Matroska at 10,6 Mb/s
Length      : 6,84 GB for 1h 32 min. 6s 771ms

V
[...]

»[Zobacz cały opis



Dodał: Uploader
Data dodania:
2016-09-10 01:15:05
Rozmiar: 7.94 GB
Ostat. aktualizacja:
2016-09-10 01:15:05
Seedów: 0
Peerów: 0


Komentarze: 0

Produkcja: Wielka Brytania
Gatunek: Komedia
Reżyseria: Robert B. Weide
Scenariusz: Peter Straughan, Toby Young

Opis:
Sidney Young to pozbawiony złudzeń intelektualista, który prowadzi plotkarski magazyn i ledwo wiąże koniec z końcem. Swoim wybrykiem podczas jednego z bankietów zwraca uwagę Claytona Hardinga, właściciela prestiżowego nowojorskiego tygodnika, który ściąga go do pracy w swojej redakcji.

Obsada:
Kelan Pannell... Young Sidney Young
Janette Scott... Mrs. Young
Simon Pegg... Sidney Young
Megan Fox... Sophie Maes
Gillian Anderson... Eleanor Johnson
Kelly Jo Charge... Apollo Awards Presenter
Christian Smith... Apollo Awards Guest

Dane techniczne:
Video
ID : 1
Format : AVC
Format/Info : Advanced Video Codec
Format profile : [email protected]
Format settings, CABAC : Yes
Format settings, ReFrames : 4 frames
Codec ID : V_MPEG4/ISO/AVC
Duration : 1h 49mn
Bit rate : 9 718 Kbps
Width : 1 920 pixels
Height : 1 080 pixels
Display aspect ratio : 16:9
[...]

»[Zobacz cały opis



Dodał: Uploader
Data dodania:
2016-09-10 01:15:04
Rozmiar: 12.05 GB
Ostat. aktualizacja:
2016-09-10 01:15:04
Seedów: 0
Peerów: 0


Komentarze: 1

Produkcja: USA
Gatunek: Dramat, Gangsterski
Reżyseria: Brian De Palma
Scenariusz: Oliver Stone

Opis:
Kubański emigrant Tony Montana opuszcza swoją ojczyznę i przybywa do Miami. Razem ze swoim przyjacielem, Manolem Rayem, zaczyna pracę dla narkotykowej mafii. Brutalny mężczyzna staje się bardzo ważną postacią w przestępczym świecie, aż w końcu staje na czele gangu. Jednak bezwzględne prawa środowiska handlarzy, jak również uzależnienie Tony'ego od kokainy doprowadzają wkrótce do tragedii...

Obsada:
Al Pacino :Tony Montana
Robert Loggia :Frank Lopez
F. Murray Abraham :Omar Swarez
Paul Shenar :Alejandro Sosa
Harris Yulin :Bernstein
Miriam Colon :Mama Montana

Dane techniczne:
Video
ID : 1
Format : AVC
Format/Info : Advanced Video Codec
Format profile : [email protected]
Format settings, CABAC : Yes
Format settings, ReFrames : 5 frames
Codec ID : V_MPEG4/ISO/AVC
Duration : 2h 50mn
Bit rate : 8 618 Kbps
Width : 1 920 pixels
Height : 816 pixels
Display aspe
[...]

»[Zobacz cały opis



Dodał: Uploader
Data dodania:
2016-09-10 01:15:04
Rozmiar: 39.73 GB
Ostat. aktualizacja:
2017-01-21 20:09:12
Seedów: 3
Peerów: 9


Komentarze: 0

Tytuł: Jupiter Ascending
Polski Tytuł : Jupiter: Intronizacja
===================

Gatunek: Akcja, Sci-Fi
Produkcja: USA
Premiera: 6 lutego 2015 (Polska) 27 stycznia 2015 (świat)
Reżyseria: Andy Wachowski, Lana Wachowski
Scenariusz: Andy Wachowski, Lana Wachowski
http://www.youtube.com/watch?v=KzGLOMLDXvI

[opis]
=================
Jupiter Jones (Mila Kunis) urodziła się pod osłoną nocnego nieba, a jej narodzinom towarzyszyły znaki świadczące o tym, że jest stworzona do wielkich rzeczy. Dorosła już Jupiter nadal chce sięgać gwiazd, ale na ziemię sprowadzają ją obowiązki pani sprzątającej cudze mieszkania i niekończąca się passa nieudanych związków. Dopiero gdy na Ziemię przybywa Caine (Channing Tatum), genetycznie zaprogramowany były zwiadowca wojskowy, którego celem jest odnalezienie Jupiter, zaczyna ona dostrzegać przeznaczenie, które czekało na nią cały czas: w jej kodzie genetycznym jest bowiem zapisane, że jest spadkobierczynią niezwykłego dziedzictwa, które
[...]

»[Zobacz cały opis



Dodał: Uploader
Data dodania:
2016-09-10 01:15:04
Rozmiar: 5.98 GB
Ostat. aktualizacja:
2016-09-10 01:15:04
Seedów: 0
Peerów: 0


Komentarze: 0

Tytuł: Nowhere Safe
Polski Tytuł: Bolesna przeszłość
==================

Gatunek: Dramat
Produkcja: USA
Ocena Filmweb: 5,7
Reżyseria: Brian Brough
Scenariusz: Brittany Wiscombe
http://www.youtube.com/watch?v=kMLJLFfwJV4

[opis]
==================
Ashley jest zwyczajną nastolatką, która nieoczekiwanie pada ofiarą cyberprzemocy ze strony rówieśników. Matka dziewczyny, nauczycielka w szkole średniej, postanawia, że obie muszą opuścić miasto i zacząć wszystko od nowa. Szybko okazuje się, że nie da się odciąć od przeszłości bez skonfrontowania się z nią. Tylko w ten sposób Ashley będzie mogła zacząć budować swoją przyszłość.



[obsada]
==================
Natasha Henstridge - Julie Johnson
Jamie Kennedy Kevin - Carlisle
Danielle Chuchran - Ashley Evans
Shona Kay - Nauczycielka matematyki
Caitlin E.J. Meyer - Lisa


[dane]
==================
Format : Matroska at 9.355 Kb/s
Length : 5,98 GB for 1h 31 min. 31s 840ms
Video #0 : AVC at 8.909 Kb/s
Aspect : 192
[...]

»[Zobacz cały opis



Dodał: Uploader
Data dodania:
2016-09-10 01:15:04
Rozmiar: 6.55 GB
Ostat. aktualizacja:
2016-09-10 01:15:04
Seedów: 0
Peerów: 0


Komentarze: 0

Produkcja: USA
Gatunek: Komedia
Reżyseria: Arthur Hiller
Scenariusz: Gene Wilder, Earl Barret, Arne Sultan, Eliot Wald, Andrew Kurtzman

Opis:
Niewidomy Wally i głuchy Dave są świadkami morderstwa. Niestety policja nie daje im wiary, natomiast przestępcy decydują się ich zlikwidować.

Obsada:
Richard Pryor jako Wallace "Wally" Karue
Gene Wilder jako Dave Lyons
Joan Severance jako Eve
Kevin Spacey jako Kirgo
Alan North jako Braddock
Anthony Zerbe jako Sutherland

Dane techniczne:
Video
ID : 1
Format : AVC
Format/Info : Advanced Video Codec
Format profile : [email protected]
Format settings, CABAC : Yes
Format settings, ReFrames : 4 frames
Codec ID : V_MPEG4/ISO/AVC
Duration : 1h 42mn
Bit rate : 8 558 Kbps
Width : 1 920 pixels
Height : 1 040 pixels
Display aspect ratio : 1.85:1
Frame rate mode : Constant
Frame rate : 23.976 fps
Color space : YUV
Chroma subsampling : 4:2:0
Bit depth : 8 bits
Scan type : Progressive
Bits/(Pixel*Frame) : 0.179
[...]

»[Zobacz cały opis



Dodał: Uploader
Data dodania:
2016-09-10 01:15:04
Rozmiar: 37.90 GB
Ostat. aktualizacja:
2017-11-17 21:10:33
Seedów: 0
Peerów: 2


Komentarze: 0

Produkcja: USA
Gatunek: Dramat, Kryminał
Reżyseria: Michael R.Roskam
Scenariusz: Dennis Lehane

Opis:
Barman znajduje w śmietniku pit bulla, którego postanawia przygarnąć. Wkrótce pojawia się właściciel psa.

Obsada:
Tom Hardy ... Bob
Noomi Rapace ... Nadia
James Gandolfini ... Marv, kuzyn
Matthias Schoenaerts ... Eric Deeds
John Ortiz ... Torres, detektyw
Elizabeth Rodriguez ... Romsey, detektyw
Michael Aronov ... Chovka

Dane techniczne:
DISC INFO:
Disc Size: 40,699,143,608 bytes
Protection: AACS
BD-Java: Yes
BDInfo: 0.5.8

PLAYLIST REPORT:
Name: 00800.MPLS
Length: 1:46:44.022 (h:m:s.ms)
Size: 30,789,703,680 bytes
Total Bitrate: 38.46 Mbps

(*) Indicates included stream hidden by this playlist.

VIDEO:
Codec Bitrate Description
----- ------- -----------
MPEG-4 AVC Video 27015 kbps 1080p / 23.976 fps / 16:9 / High Profile 4.1

AUDIO:
Codec Language Bitrate Description
----- -------- ------- -----------
DTS-HD Master Audio Engl
[...]

»[Zobacz cały opis



Dodał: Uploader
Data dodania:
2016-09-10 01:15:04
Rozmiar: 8.02 GB
Ostat. aktualizacja:
2017-11-27 00:02:46
Seedów: 2
Peerów: 3


Komentarze: 0

Produkcja: USA, Wielka Brytania
Gatunek: Akcja
Reżyseria: Joel Schumacher
Scenariusz: Akiva Goldsman

Opis:
Przerażliwy chłód spraliżował Gotham City. Znękane miasto ponownie staje w obliczu zagłady. Ostanią nadzieją na ocalenie jest Batman. Gdy na nocnym niebie pojawia się znak nietoperza, Batman natychmiast rusza na pomoc w swoim potężnym, niesamowitym Batmobilu.

Obsada:
George Clooney : Batman / Bruce Wayne
Chris O'Donnell : Robin / Richard 'Dick' Grayson
Arnold Schwarzenegger : Mr. Freeze / Dr Victor Fries
Uma Thurman : Trujący bluszcz / Pamela Isley
Alicia Silverstone : Batgirl / Barbara Wilson

Dane techniczne:
Video
ID : 1
Format : AVC
Format/Info : Advanced Video Codec
Format profile : [email protected]
Format settings, CABAC : Yes
Format settings, ReFrames : 4 frames
Codec ID : V_MPEG4/ISO/AVC
Duration : 2h 4mn
Bit rate : 8 469 Kbps
Width : 1 920 pixels
Height : 1 080 pixels
Display aspect ratio : 16:9
Frame rate mode : Constant
Frame rate
[...]

»[Zobacz cały opis



Dodał: Uploader
Data dodania:
2016-09-10 01:15:04
Rozmiar: 10.79 GB
Ostat. aktualizacja:
2016-09-10 01:15:04
Seedów: 0
Peerów: 0


Komentarze: 0

Produkcja: USA
Gatunek: Komedia, Melodramat
Reżyseria: Rob Reiner
Scenariusz: Nora Ephron

Opis:
Harry i Sally poznają się w czasach studenckich, ale nie pałają do siebie zbytnią sympatią. Spotkanie po latach daje jednak początek przyjaźni.

Obsada:
Billy Crystal - Harry Burns
Meg Ryan - Sally Albright
Carrie Fisher - Marie
Bruno Kirby - Jess
Steven Ford - Joe
Lisa Jane Persky - Alice
Michelle Nicastro - Amanda

Dane techniczne:
Video
ID : 1
Format : AVC
Format/Info : Advanced Video Codec
Format profile : [email protected]
Format settings, CABAC : Yes
Format settings, ReFrames : 4 frames
Codec ID : V_MPEG4/ISO/AVC
Duration : 1h 35mn
Width : 1 908 pixels
Height : 1 042 pixels
Display aspect ratio : 1.85:1
Frame rate mode : Constant
Frame rate : 23.976 fps
Color space : YUV
Chroma subsampling : 4:2:0
Bit depth : 8 bits
Scan type : Progressive
Title : When Harry Met Sally... (1989)
Writing library : x264 core 114 r1924 08d04a4
Language :
[...]

»[Zobacz cały opis



Dodał: Uploader
Data dodania:
2016-09-10 01:15:04
Rozmiar: 12.03 GB
Ostat. aktualizacja:
2016-09-10 01:15:04
Seedów: 0
Peerów: 0


Komentarze: 0

Produkcja: Francja, Holandia, Kanada, Niemcy, Polska, Wielka Brytania
Gatunek: Kostiumowy, Historyczny
Reżyseria: Peter Greenaway
Scenariusz: Peter Greenaway

Opis:
Ekstrawaganckie i poruszające spojrzenie na osobiste i zawodowe życie Rembrandta (Martin Freeman). Film opowiada o tajemnicach tworzenia jednego z najsłynniejszych obrazów artysty "Night Watch" ("Nocna straż") i koncentruje się na kontrowersjach związanych z być może ukrytą w nim tajemnicą. W osobistym życiu Rembrandta istotną role odgrywały dwie ukazane w filmie kobiety: Saskia (Sarah Polley) i Gertjee (Minnie Driver).

Obsada:
Martin Freeman: Rembrandt van Rijn
Emily Holmes: Hendrickje
Michael Teigen: Carel Fabritius
Nathalie Press: Marieke
Anna Antonowicz: Catharina

Dane techniczne:
Video
ID : 1
Format : AVC
Format/Info : Advanced Video Codec
Format profile : [email protected]
Format settings, CABAC : Yes
Format settings, ReFrames : 5 frames
Codec ID : V_MPEG4/ISO/AVC
Duration : 2h 15mn
Bit ra
[...]

»[Zobacz cały opis



Dodał: Uploader
Data dodania:
2016-09-10 01:15:04
Rozmiar: 18.44 GB
Ostat. aktualizacja:
2016-09-10 01:15:04
Seedów: 0
Peerów: 0


Komentarze: 0

Produkcja: Francja, USA
Gatunek: Dramat, Kryminał
Reżyseria: Oliver Stone
Scenariusz: Oliver Stone, Zachary Sklar

Opis:
Szczegóły śledztwa Jima Garrisona, który prowadzi nieoficjalne dochodzenie w sprawie zabójstwa prezydenta Kennedy'ego w Dallas w 1963 r. Okazuje się, że FBI wie dużo więcej o kulisach morderstwa, niż jest to podane do publicznej wiadomości.

Obsada:
Kevin Costner - Jim Garrison
Tommy Lee Jones - Clay Shaw
Gary Oldman - Lee Harvey Oswald
Joe Pesci - David Ferrie
Kevin Bacon - Willie O'Keefe

Dane techniczne:
Video
ID : 1
Format : AVC
Format/Info : Advanced Video Codec
Format profile : [email protected]
Format settings, CABAC : Yes
Format settings, ReFrames : 4 frames
Codec ID : V_MPEG4/ISO/AVC
Duration : 3h 25mn
Bit rate : 11.5 Mbps
Width : 1 920 pixels
Height : 800 pixels
Display aspect ratio : 2.40:1
Frame rate mode : Constant
Frame rate : 23.976 fps
Color space : YUV
Chroma subsampling : 4:2:0
Bit depth : 8 bits
Scan type
[...]

»[Zobacz cały opis



Dodał: Uploader
Data dodania:
2016-09-10 01:15:04
Rozmiar: 7.72 GB
Ostat. aktualizacja:
2016-09-10 01:15:04
Seedów: 0
Peerów: 0


Komentarze: 0

Produkcja: Francja
Gatunek: Sensacyjny
Reżyseria: Olivier Megaton
Scenariusz: Luc Besson, Robert Mark Kamen

Opis:
Bryan Mills, emerytowany agent CIA agent, który nie cofnął się przed niczym by uratować córkę Kim z rąk albańskich porywaczy. Tym razem zostaje porwany razem z żoną podczas rodzinnych wakacji w Stambule. Przy użyciu zaawansowanych technik znanych siłom specjalnym Brian stara się zapewnić bezpieczeństwo swojej rodzinie.

Obsada:
Liam Neeson - Bryan Mills
Maggie Grace - Kim
Famke Janssen -Lenore
Leland Orser - Sam Jon Gries - Casey

Dane techniczne:
Video.......: x264 9620 kbps
Frame.Rate..: 23,976 fps
Resolution..: 1920x808 pixel
Audio.......: English DTS 1510 kbps
Language....: English
Length......: 1h 38m 18s
Size........: 4480 MB

Napisy:
http://www75.zippyshare.com/v/Ay5Ifrth/file.html

Trailer:
http://www.youtube.com/watch?v=q8eE5T6iMsg



Dodał: Uploader
Data dodania:
2016-09-10 01:15:04
Rozmiar: 6.56 GB
Ostat. aktualizacja:
2016-09-10 01:15:04
Seedów: 0
Peerów: 0


Komentarze: 0

Produkcja: USA
Gatunek: Sci-Fi
Reżyseria: Steven Lisberger
Scenariusz: Steven Lisberger

Opis:
Haker zostaje przeniesiony do wnętrza systemu komputerowego i zmuszony, by walczyć o życie. Jego jedyną nadzieją jest program Tron.

Obsada:
Jeff Bridges - Kevin Flynn / Clu
Bruce Boxleitner - Alan Bradley / Tron
David Warner - Ed Dillinger / Sark / Program Główny
Cindy Morgan - Lora / Yori
Barnard Hughes - Dr Walter Gibbs / Dumont
Dan Shor - Ram

Dane techniczne:
Video
ID : 1
Format : AVC
Format/Info : Advanced Video Codec
Format profile : [email protected]
Format settings, CABAC : Yes
Format settings, ReFrames : 4 frames
Codec ID : V_MPEG4/ISO/AVC
Duration : 1h 35mn
Bit rate : 8 292 Kbps
Width : 1 920 pixels
Height : 872 pixels
Display aspect ratio : 2.2:1
Frame rate mode : Constant
Frame rate : 23.976 fps
Color space : YUV
Chroma subsampling : 4:2:0
Bit depth : 8 bits
Scan type : Progressive
Bits/(Pixel*Frame) : 0.207
Stream siz
[...]

»[Zobacz cały opis



Dodał: Uploader
Data dodania:
2016-09-10 01:15:04
Rozmiar: 13.69 GB
Ostat. aktualizacja:
2016-09-10 01:15:04
Seedów: 0
Peerów: 0


Komentarze: 0

Produkcja: USA
Gatunek: Komedia
Reżyseria: Jay Roach
Scenariusz: Jim Herzfeld, Vince Di Meglio

Opis:
Greg przedstawia Pam i jej rodzinę swoim rodzicom. Fockerowie są całkowitym przeciwieństwem Byrnesów.

Obsada:
Ben Stiller...Gaylord 'Greg' M. Focker
Robert De Niro...Jack Byrnes
Dustin Hoffman...Ojciec Grega
Blythe Danner...Dina Byrnes
Teri Polo...Pamela Martha Byrnes
Barbra Streisand...Matka Grega

Dane techniczne:
Video
ID : 1
Format : AVC
Format/Info : Advanced Video Codec
Format profile : [email protected]
Format settings, CABAC : Yes
Format settings, ReFrames : 5 frames
Codec ID : V_MPEG4/ISO/AVC
Duration : 1h 55mn
Bit rate : 15.5 Mbps
Width : 1 920 pixels
Height : 1 040 pixels
Display aspect ratio : 1.85:1
Frame rate mode : Constant
Frame rate : 23.976 fps
Color space : YUV
Chroma subsampling : 4:2:0
Bit depth : 8 bits
Scan type : Progressive
Bits/(Pixel*Frame) : 0.324
Stream size : 12.2 GiB (89%)
Writing library : x264
[...]

»[Zobacz cały opis



Dodał: Uploader
Data dodania:
2016-09-10 01:15:04
Rozmiar: 11.03 GB
Ostat. aktualizacja:
2016-09-10 01:15:04
Seedów: 0
Peerów: 0


Komentarze: 0

Produkcja: USA
Gatunek: Dramat, Sportowy
Reżyseria: Boaz Yakin
Scenariusz: Gregory Allen Howard

Opis:
Oparta na faktach historia czarnoskórego trenera, który zostaje wybrany na trenera szkolnej drużyny futbolowej. Decyzja ta budzi sprzeciw wielu białych, którzy nie zgadzają się aby murzyn pełnił tak odpowiedzialną funkcję.

Obsada:
Denzel Washington: trener Boone
Will Patton: Bill Yoast
Wood Harris: Julius Campbell
Ryan Hurst: Gerry Bertier
Donald Faison: Petey Jones

Dane techniczne:
Video
ID : 1
Format : AVC
Format/Info : Advanced Video Codec
Format profile : [email protected]
Format settings, CABAC : Yes
Format settings, ReFrames : 5 frames
Codec ID : V_MPEG4/ISO/AVC
Duration : 1h 53mn
Bit rate : 13.2 Mbps
Width : 1 920 pixels
Height : 816 pixels
Display aspect ratio : 2.35:1
Original display aspect ratio : 2.35:1
Frame rate mode : Constant
Frame rate : 23.976 fps
Color space : YUV
Chroma subsampling : 4:2:0
Bit depth : 8 bits
Scan type
[...]

»[Zobacz cały opis



Dodał: Uploader
Data dodania:
2016-09-10 01:15:04
Rozmiar: 8.02 GB
Ostat. aktualizacja:
2018-06-16 00:35:47
Seedów: 0
Peerów: 6


Komentarze: 0

Produkcja: Niemcy, USA
Gatunek: Sensacyjny
Reżyseria: John Woo
Scenariusz: Robert Towne

Opis:
Ethan Hunt powrócił. Tym razem tylko on może powstrzymać przestępców, w ręce których wpadła wyjątkowa groźna broń chemiczna o nazwie chimera. Hunt wraz z komputerowym geniuszem Lutherem oraz piękną złodziejką Nyah wyruszają w niebezpieczną misję, której stawką jest bezpieczeństwo świata.

Obsada:
Tom Cruise: Ethan Hunt
Dougray Scott: Sean Ambrose
Thandie Newton: Nyah Nordolf-Hall
Ving Rhames: Luther Stickell
Richard Roxburgh: Hugh Stamp
John Polson: Billy Baird

Dane techniczne:
Video Codec ......: x264
Resolution .......: 1920x800
Aspect Ratio......: 2.4
Video Bit rate ...: 10.2 Mbps
Audio Codec ......: AC3
Audio Bitrate ....: 640
Subtitles ........: none
File size ........: 7.94 GiB

Napisy:
http://www77.zippyshare.com/v/JgatPEpf/file.html

Trailer:
http://www.youtube.com/watch?v=vIpqpRuGrq4



Dodał: Uploader
Data dodania:
2016-09-10 01:15:03
Rozmiar: 4.37 GB
Ostat. aktualizacja:
2017-10-26 21:22:38
Seedów: 0
Peerów: 0


Komentarze: 0

Star Trek: Nemesis
Gatunek: science-fiction
Data premiery: 13 grudnia 2002
Kraj produkcji: Stany Zjednoczone USA
Język: angielski
Czas trwania: 116 min
Reżyseria: Stuart Baird
Scenariusz: John Logan, Rick Berman, Brent Spiner
Muzyka: Jerry Goldsmith
Zdjęcia: Jeffrey L. Kimball
Montaż: Dallas Puett
Dystrybucja: Paramount Pictures


Opis fabuły:
Załoga USS Enterprise NCC-1701E świętuje w przeddzień wielkich zmian. Komandor William Riker i Doradca Deanna Troi po latach postanawiają wziąć ślub. Jednocześnie Riker wkrótce ma objąć dowództwo nad własnym okrętem - USS Titan. Tymczasem na planetach Romulus i Remus, w samym sercu Gwiezdnego Imperium Romulańskiego wykuwa się przeznaczenie. W brutalnym zamachu giną Pretor i niemal wszyscy senatorowie. Z chaosu wynurza się zdolny, młody strateg, który dzięki poparciu armii przejmuje władze w Imperium i ogłasza się Pretorem. Tymczasem Geordi La Forge wykrywa na jednej z planet w pobliżu Romulańskiej Strefy Neutralnej osobliwą sygnatu
[...]

»[Zobacz cały opis



Dodał: Uploader
Data dodania:
2016-09-10 01:15:03
Rozmiar: 31.17 GB
Ostat. aktualizacja:
2017-07-18 18:54:35
Seedów: 0
Peerów: 2


Komentarze: 0

Chłopak z sąsiedztwa - The Boy Next Door (2015) [CEE.Blu-Ray.1080p.AVC.DTS-HD] [Lektor i Napisy PL]


Daty premier:
21 stycznia 2015 (świat)
28 kwietnia 2015 (Blu-ray)
Produkcja: USA
Reżyseria: Rob Cohen
Scenariusz: Barbara Curry
Gatunek: Thriller
Czas trwania: 91 min

Obsada:
Jennifer Lopez - Claire Peterson
Ryan Guzman - Noah Sandborn
Ian Nelson - Kevin Peterson
John Corbett - Garrett Peterson
Kristin Chenoweth - Vicky Lansing
Lexi Atkins - Allie Callahan
Hill Harper - Dyrektor Edward Warren
Jack Wallace - Pan Sandborn

Screenshots:
http://www.blu-ray.com/news/?id=16164
http://www.blu-ray.com/movies/The-Boy-Next-Door-Blu-ray/123707/#Screenshots


Krótko po rozwodzie nauczycielka Claire Peterson (Jennifer Lopez) wdaje się w romans z nad wyraz dojrzałym nastolatkiem Noah (Ryan Guzman), który właśnie wprowadza się do domu obok. Kiedy uświadamia sobie, że to, co robi jest złe i zrywa romans, jest już za późno. Chłopak nie przyjmuje odmowy. Nakręca się sp
[...]

»[Zobacz cały opis



Dodał: Uploader
Data dodania:
2016-09-10 01:15:03
Rozmiar: 36.06 GB
Ostat. aktualizacja:
2017-11-27 06:12:53
Seedów: 0
Peerów: 0


Komentarze: 1

Zbaw nas ode złego - Deliver Us from Evil (2014) [CEE.Blu-Ray.1080p.AVC.DTS-HD] [Lektor i Napisy PL]


Daty premier: 2 lipca 2014 (świat)
Produkcja: USA
Reżyseria: Scott Derrickson
Scenariusz: Paul Harris Boardman, Scott Derrickson
Gatunek: horror, kryminał
Czas trwania: 118 min

Obsada:
Eric Bana - Sarchie
Édgar Ramírez - Mendoza
Olivia Munn - Jen
Chris Coy - Jimmy
Dorian Missick - Gordon
Sean Harris - Santino
Joel McHale - Butler
Mike Houston - Nadler

Screenshots:
http://www.blu-ray.com/movies/Deliver-Us-from-Evil-Blu-ray/107669/#Screenshots


Oficer nowojorskiej policji Ralph Sarchie (Eric Bana) prowadzi dochodzenie w sprawie serii tajemniczych morderstw. Pomaga mu niekonwencjonalny ksiądz (Édgar Ramírez), który jest przekonany, że w sprawy są zamieszane siły nieczyste.
_______________________________________________________
DISC INFO:
Disc Title: DELIVER_US_FROM_EVIL_HDCLUB
Disc Size: 38 721 460 504 bytes
Protection: AACS
BD-Java: Yes
BDInfo: 0.5.8

[...]

»[Zobacz cały opis



Dodał: Uploader
Data dodania:
2016-09-10 01:15:03
Rozmiar: 7.65 GB
Ostat. aktualizacja:
2018-05-27 01:34:14
Seedów: 0
Peerów: 0


Komentarze: 0

Produkcja: USA
Gatunek: Komedia
Reżyseria: Roger Donaldson
Scenariusz: Heywood Gould

Opis:
Utalentowany barman z Nowego Jorku podejmuje pracę na Jamajce, gdzie zakochuje się w amerykańskiej artystce.

Obsada:
Tom Cruise jako Brian Flanagan
Bryan Brown jako Douglas "Doug" Coughlin
Elisabeth Shue jako Jordan Mooney
Laurence Luckinbill jako Richard Mooney

Dane techniczne:
Video
ID : 1
Format : AVC
Format/Info : Advanced Video Codec
Format profile : [email protected]
Format settings, CABAC : Yes
Format settings, ReFrames : 4 frames
Codec ID : V_MPEG4/ISO/AVC
Duration : 1h 43mn
Bit rate : 9 070 Kbps
Width : 1 920 pixels
Height : 1 040 pixels
Display aspect ratio : 1.85:1
Frame rate mode : Constant
Frame rate : 23.976 fps
Color space : YUV
Chroma subsampling : 4:2:0
Bit depth : 8 bits
Scan type : Progressive
Bits/(Pixel*Frame) : 0.189
Stream size : 6.40 GiB (84%)
Writing library : x264 core 124 r2197 69a0443
Language : English
Default :
[...]

»[Zobacz cały opis



Dodał: Uploader
Data dodania:
2016-09-10 01:15:03
Rozmiar: 12.41 GB
Ostat. aktualizacja:
2016-09-10 01:15:03
Seedów: 0
Peerów: 0


Komentarze: 0

Produkcja: USA
Gatunek: Komedia
Reżyseria: Jay Roach
Scenariusz: Jim Herzfeld , John Hamburg

Opis:
Greg postanawia oświadczyć się Pam. Najpierw musi zdobyć uznanie jej despotycznego ojca, Jacka.

Obsada:
Robert De Niro jako Jack Byrnes
Ben Stiller jako Greg Focker
Nicole DeHuff jako Debbie Byrnes
Blythe Danner jako Dina Byrnes
Teri Polo jako Pam Byrnes
Jon Abrahams jako Denny Byrnes

Dane techniczne:
Video
ID : 1
Format : AVC
Format/Info : Advanced Video Codec
Format profile : [email protected]
Format settings, CABAC : Yes
Format settings, ReFrames : 4 frames
Codec ID : V_MPEG4/ISO/AVC
Duration : 1h 47mn
Bit rate : 15.0 Mbps
Width : 1 920 pixels
Height : 1 080 pixels
Display aspect ratio : 16:9
Frame rate mode : Constant
Frame rate : 23.976 fps
Color space : YUV
Chroma subsampling : 4:2:0
Bit depth : 8 bits
Scan type : Progressive
Bits/(Pixel*Frame) : 0.302
Stream size : 11.0 GiB (89%)
Writing library : x264 core 118 r2085 8a62835
L
[...]

»[Zobacz cały opis



Dodał: Uploader
Data dodania:
2016-09-10 01:15:03
Rozmiar: 9.10 GB
Ostat. aktualizacja:
2016-09-10 01:15:03
Seedów: 0
Peerów: 0


Komentarze: 0

Produkcja: USA, Francja
Gatunek: Thiller, Akcja
Reżyseria: Jaume Collet-Serra
Scenariusz: John W.Richardson, Christopher Roach, Ryan Engle

Opis:
Agent federalny Bill Marks musi uratować pasażerów i załogę samolotu opanowanego przez terrorystów.

Obsada:
Liam Neeson ... Bill Marks
Julianne Moore ... Jen Summers
Scoot McNairy ... Tom Bowen
Michelle Dockery ... Nancy
Nate Parker ... Zack White

Dane techniczne:
[Settings Used] - Placebo, CRF, TESA, SATD Exhaustive, Full RD, M.E. Range 32
[Video Profile] – [email protected] AVC CABAC @ 10,500 Kbps
[Resolution] – 1920 X 800
[Audio Track 1] – AC-3 @ 640 Kbps 6 Channels
[Audio Track 2] - AAC/LC @ 1028 Kbps 6 Channels
[Subtitles Muxed] – English

Napisy:
http://www67.zippyshare.com/v/5PFrqpDN/file.html

Trailer:
http://www.youtube.com/watch?v=jiHDJ19A3dk



Dodał: Uploader
Data dodania:
2016-09-10 01:15:03
Rozmiar: 6.62 GB
Ostat. aktualizacja:
2016-09-10 01:15:03
Seedów: 0
Peerów: 0


Komentarze: 0

Produkcja: Irlandia, Niemcy, USA, Wielka Brytania
Gatunek: Komedia kryminalna
Reżyseria: Thaddeus O'Sullivan
Scenariusz: Gerard Stembridge

Opis:
Przestępca Michael Lynch dba o własny wizerunek oraz losy przyszłego potomstwa zamiast interesować się zyskiem z nielegalnych interesów.

Obsada:
Kevin Spacey....Michael Lynch
Linda Fiorentino....Christine
Peter Mullan....Stevie
Stephen Dillane....Noel Quigley
Helen Baxendale....Lisa

Dane techniczne:
Video
ID : 1
Format : AVC
Format/Info : Advanced Video Codec
Format profile : [email protected]
Format settings, CABAC : Yes
Format settings, ReFrames : 4 frames
Codec ID : V_MPEG4/ISO/AVC
Duration : 1h 34mn
Bit rate : 8 437 Kbps
Width : 1 920 pixels
Height : 1 080 pixels
Display aspect ratio : 16:9
Frame rate mode : Constant
Frame rate : 23.976 fps
Color space : YUV
Chroma subsampling : 4:2:0
Bit depth : 8 bits
Scan type : Progressive
Bits/(Pixel*Frame) : 0.170
Stream size : 5.43 GiB (83%)
Writi
[...]

»[Zobacz cały opis



Dodał: Uploader
Data dodania:
2016-09-10 01:15:03
Rozmiar: 10.99 GB
Ostat. aktualizacja:
2017-04-03 14:51:05
Seedów: 18
Peerów: 13


Komentarze: 0

Produkcja: USA, Włochy
Gatunek: Gangsterski, Dramat
Reżyseria: Francis Ford Coppola
Scenariusz: Francis Ford Coppola, Mario Puzo

Opis:
Opowieść o nowojorskiej rodzinie mafijnej. Starzejący się Don Corleone pragnie przekazać władzę swojemu synowi.

Obsada:
Marlon Brando : Vito Corleone
Al Pacino : Michael Corleone
Diane Keaton : Kay Adams
Robert Duvall : Tom Hagen
Richard S. Castellano : Peter Clemenza
James Caan : Santino 'Sonny' Corleone

Dane techniczne:
Video
ID : 1
Format : AVC
Format/Info : Advanced Video Codec
Format profile : [email protected]
Format settings, CABAC : Yes
Format settings, ReFrames : 4 frames
Codec ID : V_MPEG4/ISO/AVC
Duration : 2h 57mn
Bit rate : 8 194 Kbps
Width : 1 920 pixels
Height : 1 080 pixels
Display aspect ratio : 16:9
Frame rate mode : Constant
Frame rate : 23.976 fps
Color space : YUV
Chroma subsampling : 4:2:0
Bit depth : 8 bits
Scan type : Progressive
Bits/(Pixel*Frame) : 0.165
Stream size : 9.92 GiB
[...]

»[Zobacz cały opis



Dodał: Uploader
Data dodania:
2016-09-10 01:15:03
Rozmiar: 12.72 GB
Ostat. aktualizacja:
2018-04-02 17:35:16
Seedów: 0
Peerów: 4


Komentarze: 0

Produkcja: USA
Gatunek: Melodramat
Reżyseria: Nick Cassavetes
Scenariusz: Jeremy Leven, Jan Sardi

Opis:
Stary mężczyzna czyta chorej na Alzheimera kobiecie pamiętnik opisujący historię miłości dziewczyny z zamożnego domu i ubogiego pracownika tartaku.

Obsada:
Tim Ivey ... Rower
Gena Rowlands ... Allie Calhoun
Starletta DuPois ... Nurse Esther
James Garner ... Duke
Anthony-Michael Q. Thomas ... Nurse Keith
Ed Grady ... Harry
Renée Amber ... Nurse at Counter

Dane techniczne:
Format---------- mkv/avc
File size-------- 11.6 GB
Length---------- 2:03:49
Video Bit rate ~11.8 Mbps
Resolution---- 1920x816
Frame rate---- 23.976 fps
Audio----------- Eng DTS-HD MA 5.1 @1.7 Mbps / Commentaries in extras folder
Subtitles------- Eng, Ara, Dan, Dut, Fin, Fre, Ger, Hun, Ind, Nor, Pol, Pt br, Rom, Rus, Spa eu & la, Swe, Vie

Extras (SD, DD 2.0, Subs; Ger, Rus, In total 1GB, 1H6min + 2 commentaries)
A Simple Story, Well Told (about Nicholas Sparks' life and work)
[...]

»[Zobacz cały opis



Dodał: Uploader
Data dodania:
2016-09-10 01:15:03
Rozmiar: 2.29 GB
Ostat. aktualizacja:
2018-01-11 08:43:14
Seedów: 0
Peerów: 0


Komentarze: 0

"Klejnot Nilu"

Reżyseria: Lewis Teague
Scenariusz: Lawrence Konner, Mark Rosenthal
Gatunek: Przygodowy
Produkcja: USA
Premiera: 4 grudnia 1985 (Świat)
Muzyka: Jack Nitzsche
Zdjęcia: Jan De Bont

Obsada:

Michael Douglas
Kathleen Turner
Danny DeVito
Avner Eisenberg
Spiros Focás
Paul David Magid
Howard Jay Patterson
Samuel Ross Williams
Randall Edwin Nelson
Timothy Daniel Furst

Opis:

Powieściopisarka Joan Wilder (Kathleen Turner) razem z Jackiem Coltonem (Michael Douglas) spędza wakacje nad Morzem Śródziemnym. Joan otrzymuje propozycję wyjazdu do Egiptu, by opisywać działalność Omara. Przyjmuje ją. Jednak na miejscu okazuje się, że Omar nie ma dobrych zamiarów. Porwał też ważnego człowieka o imieniu Klejnot Nilu. Do Egiptu wyrusza też Jack, gdy dowiaduje się, że Joan może grozić niebezpieczeństwo. Kiedy Jack odnajduje Joan, muszą uciec wraz z Klejnotem Nilu z pałacu Omara i dotrzeć z nim do Kairu. Ścigani przez Omara po pustyni przeżyją kilka fascynujących p
[...]

»[Zobacz cały opis

1 - 30 | 31 - 60 | 61 - 90 | ... | 3061 - 3090 | 3091 - 3120 | 3121 - 3150 | 3151 - 3180 | 3181 - 3210 | 3211 - 3216
<< Poprzednia      Następna >>

Żaden z plików nie znajduje się na serwerze. Torrenty są własnością użytkowników. Administrator serwisu nie może ponieść konsekwencji za to co użytkownicy wstawiają, lub za to co czynią na stronie. Nie możesz używać tego serwisu do rozpowszechniania lub ściągania materiałów do których nie masz odpowiednich praw lub licencji. Użytkownicy odpowiedzialni są za przestrzeganie tych zasad.
Copyright © 2016 Ex-torrentyorgs.com.pl

Najlepsze strony Torrentowe