Dodał: Uploader
Data dodania:
2016-09-10 01:15:03
Rozmiar: 8.48 GB
Ostat. aktualizacja:
2017-10-14 19:46:16
Seedów: 2
Peerów: 1


Komentarze: 0

...( Info )...


produkcja: Francja, USA, Wielka Brytania
gatunek: Sensacyjny
premiera: 15 sierpnia 2008 (Polska) 27 lutego 2008 (Świat)
reżyseria: Pierre Morel
scenariusz: Luc Besson, Robert Mark Kamen

http://www.imdb.com/title/tt0936501/
http://www.filmweb.pl/film/Uprowadzona-2008-401089


...( Opis )...

Czy można wyobrazić sobie coś gorszego niż przysłuchiwanie się porwaniu własnej córki za pośrednictwem telefonu komórkowego? Ten koszmar przeżywa Bryan, były agent służb specjalnych, któremu pozostało bardzo mało czasu, aby wyrwać 17-letnią Kim z rąk bezwzględnego gangu handlującego kobietami. Sytuacja wydaje się beznadziejna, zwłaszcza że Bryan znajduje się w Los Angeles, a jego córkę porwano w Paryżu... Jednak ktoś, kogo przez całe życie szkolono w zabijaniu, będzie wiedział, co zrobić.

...( Obsada )...

Liam Neeson - Bryan
Maggie Grace - Kim
Famke Janssen - Lenore
Xander Berkeley - Stuart
Katie Cassidy - Amanda
Olivier Rabourdin - Jean Claude
Leland Ors
[...]

»[Zobacz cały opis



Dodał: Uploader
Data dodania:
2016-09-10 01:15:03
Rozmiar: 3.46 GB
Ostat. aktualizacja:
2018-02-26 18:59:54
Seedów: 0
Peerów: 0


Komentarze: 0

Tytuł polski: ....... - Zabójcy bażantów
Tytuł oryginalny: ... - FasandrASberne
=====================================
Gatunek: ............ - Kryminał, Thriller
Produkcja: .......... - Dania
Premiera: ........... - 24 kwietnia 2015 (Polska) 18 września 2014 (świat)
Czas trwania: ....... - 1 godz. 59 min.
Ocena Filmweb: ...... - 6,9 /10
Reżyseria: .......... - Mikkel N?rgaard
Scenariusz: ......... - Nikolaj Arcel, Rasmus Heisterberg

IMDb.......: http://www.imdb.com/title/tt3140100/
Filmweb....: http://www.filmweb.pl/film/Zab%C3%B3jcy+ba%C5%BCant%C3%B3w-2014-698186
Trailer....: http://www.youtube.com/watch?v=ygQeCuXIS_I

...::: OPIS FILMU :::...
========================

Detektywi z Departamentu Q ? zajmującego się nierozwiązanymi i przeterminowanymi sprawami ? próbują rozwikłać makabryczną zbrodnię sprzed lat. Choć rzekomy zabójca od prawie dwóch dekad siedzi za kratkami, na policję zgłasza się świadek, który rzuca nowe światło na dawno zamkniętą sprawę. Podejrzani ?
[...]

»[Zobacz cały opis



Dodał: Uploader
Data dodania:
2016-09-10 01:15:03
Rozmiar: 8.82 GB
Ostat. aktualizacja:
2016-09-10 01:15:03
Seedów: 0
Peerów: 0


Komentarze: 0

Produkcja: USA
Gatunek: Thriller
Reżyseria: Martin Scorsese
Scenariusz: Wesley Strick, James R. Webb

Opis:
Gwałciciel zwolniony z więzienia po 14 latach zaczyna prześladować rodzinę adwokata, który nieskutecznie bronił go w sądzie.

Obsada:
Robert De Niro: Max Cady
Nick Nolte: Sam Bowden
Jessica Lange: Leigh Bowden
Juliette Lewis: Danielle Bowden
Joe Don Baker: Claude Kersek
Robert Mitchum: Sierżant Elgart

Dane techniczne:
Size .....: 8960mb
Video ....: 1920x816 (X264 @ 23.976fps)
Bitrate ..: 8315kbps
Audio ....: DTS 1509kbps
Lang .....: English
Subs .....: English / French / Spanish / Portuguese / Italian / German / Dutch / Swedish / Norwegian / Danish / Finnish / Icelandic / Japanese / Chinese / Korean

Napisy:
http://www22.zippyshare.com/v/pmxDf4tF/file.html

Trailer:
http://www.youtube.com/watch?v=a0fNVgSks8E



Dodał: Uploader
Data dodania:
2016-09-10 01:15:02
Rozmiar: 31.17 GB
Ostat. aktualizacja:
2016-09-10 01:15:02
Seedów: 0
Peerów: 0


Komentarze: 0

Produkcja: USA, Wielka Brytania
Gatunek: Thriller, Sci-Fi
Reżyseria: Alex Garland
Scenariusz: Alex Garland

Opis:
Po wygraniu konkursu programista jednej z największych firm internetowych zostaje zaproszony do posiadłości swojego szefa. Na miejscu dowiaduje się, że jest częścią eksperymentu.

Obsada:
Alicia Vikander...Ava
Domhnall Gleeson...Caleb
Oscar Isaac...Nathan
Corey Johnson...Jay
Sonoya Mizuno ...Kyoko

Dane techniczne:
Video
ID : 1
Format : AVC
Format/Info : Advanced Video Codec
Format profile : [email protected]
Format settings, CABAC : Yes
Format settings, ReFrames : 4 frames
Codec ID : V_MPEG4/ISO/AVC
Duration : 1h 48mn
Bit rate mode : Variable
Maximum bit rate : 34.0 Mbps
Width : 1 920 pixels
Height : 1 080 pixels
Display aspect ratio : 16:9
Frame rate mode : Constant
Frame rate : 23.976 fps
Color space : YUV
Chroma subsampling : 4:2:0
Bit depth : 8 bits
Scan type : Progressive
Title : Ex.Machina.2015.1080p.BluRay.REMUX.AVC.D
[...]

»[Zobacz cały opis



Dodał: Uploader
Data dodania:
2016-09-10 01:15:02
Rozmiar: 3.84 GB
Ostat. aktualizacja:
2018-04-13 00:34:07
Seedów: 0
Peerów: 0


Komentarze: 0

http://iv.pl/images/10383165317302369251.jpg

http://www.filmweb.pl/film/Bitva+za+Sevastopol-2015-729444
http://www.imdb.com/title/tt4084744/

gatunek: Biograficzny,Dramat,Wojenny
produkcja: Rosja,Ukraina
premiera: 02-04-2015
reżyseria:   Sergey Mokritskiy
scenariusz:   Maksim Budarin, Maksim Dankevich
czas:      02:02:49

opis:

The breakout of the war shatters the world of a young student, Lyudmila Pavlichenko, forcing her to enlist in the army in 1941. The maiden turns out to be a natural-born sniper, her impressive skill and prowess make her stand out among men and women alike. Seeing Pavlichenko as a tangible threat, the German High Command gives orders to eliminate the girl whatever the cost. In the meanwhile, Lyudmila meets a man and falls in love. War fades into the background... Soon, however, another misfortune befalls Lyudmila leaving the man she loves on the brink of death and herself seriously wounded. The girl is pulled out of combat and later goes
[...]

»[Zobacz cały opis



Dodał: Uploader
Data dodania:
2016-09-10 01:15:02
Rozmiar: 3.90 GB
Ostat. aktualizacja:
2016-09-10 01:15:02
Seedów: 0
Peerów: 0


Komentarze: 0

Tytuł: Chappie / Chappie
=====================

Produkcja: Meksyk, USA
Gatunek: Thriller, Akcja, Sci-Fi
Czas trwania: 120 min.
Premiera: 13.03.2015 - Polska, 04.03.2015 - Świat
Reżyseria: Neill Blomkamp
Scenariusz: Neill Blomkamp, Terri Tatchell
http://www.youtube.com/watch?v=l6bmTNadhJE&hd=1


[opis]
===================
W dzisiejszych czasach roboty do zadań specjalnych stają się codziennością. W brutalnym świecie Johannesburga policja i wojsko używają ich do tłumienia zamieszek i walki z gangsterami. Chappie jest jednym z robotów nowej generacji, które myślą i czują. Niewiele różni się od nas, ludzi. Jest jak dziecko i tak jak ono poznaje świat oczyma opiekunów. Kiedy Chappie dostaje się w ręce gangsterów, ci resetują jego dotychczasową wiedzę i uczą wszystkiego od nowa, tak by pracował dla nich. Poczciwy, budzący sympatię robot, nie do końca świadomy wyrządzania zła, uczestniczy w brutalnych napadach rabunkowych i życiu przestępczego półświatka.

[obsada]
=====
[...]

»[Zobacz cały opis



Dodał: Uploader
Data dodania:
2016-09-10 01:15:02
Rozmiar: 9.90 GB
Ostat. aktualizacja:
2017-10-14 19:47:09
Seedów: 0
Peerów: 0


Komentarze: 0

...( Info )...

Produkcja: Francja
Gatunek: Sensacyjny
Czas trwania: 108 min.
Premiera: 09.01.2015 - Polska, 16.12.2014 - Świat
Scenariusz: Luc Besson, Robert Mark Kamen
Reżyseria: Olivier Megaton

http://www.filmweb.pl/film/Uprowadzona+3-2014-670003
http://www.imdb.com/title/tt2446042

..::(Opis)::..

Bryana Millsa nikomu przedstawiać nie trzeba. Od lat oczyszcza świat z najbardziej zwyrodniałych szumowin. Przestępcy już kilka razy próbowali go za to ukarać i za każdym razem przypłacali to życiem. Tym razem zaatakują wyjątkowo boleśnie. Gdy jego ukochana żona zostanie zamordowana, a podejrzenie padnie na niego, Bryan znów będzie musiał zrobić użytek ze "swych wyjątkowych umiejętności", by dorwać winnych, oczyścić się z zarzutów i przede wszystkim ochronić najdroższą córkę. Jednak tym razem wróg okaże się wyjątkowy...

..::(Obsada)::..

Liam Neeson - Bryan Mills
Forest Whitaker - Franck Dotzler
Famke Janssen - Lenore St. John
Maggie Grace - Kim Mills
Dougray Scott
[...]

»[Zobacz cały opis



Dodał: Uploader
Data dodania:
2016-09-10 01:15:02
Rozmiar: 23.74 GB
Ostat. aktualizacja:
2018-04-29 02:36:30
Seedów: 2
Peerów: 0


Komentarze: 0

Produkcja: Australia
Gatunek: Sci-Fi
Reżyseria: George Miller
Scenariusz: Brian Hannant, George Miller, Terry Hayes

Opis:
Max postanawia pomóc mieszkańcom atakowanej przez bandytów osady w zdobyciu pojazdu, dzięki któremu mogliby poszukać lepszego miejsca do życia.

Obsada:
Mel Gibson .... Max
Bruce Spence .... Kapitan
Michael Preston .... Pappagallo
Max Phipps .... Toadie
Vernon Wells .... Wez

Dane techniczne:
DISC INFO:
Disc Size: 25 489 032 218 bytes
Protection: AACS
BD-Java: No
BDInfo: 0.5.8

PLAYLIST REPORT:
Name: 00100.MPLS
Length: 1:35:29.140 (h:m:s.ms)
Size: 24 467 060 736 bytes
Total Bitrate: 34,17 Mbps

(*) Indicates included stream hidden by this playlist.

VIDEO:
Codec Bitrate Description
----- ------- -----------
MPEG-4 AVC Video 25631 kbps 1080p / 23,976 fps / 16:9 / High Profile 4.1

AUDIO:
Codec Language Bitrate Description
----- -------- ------- -----------
DTS-HD Master Audio English 2279 kbps 5.1 / 48 kHz / 2
[...]

»[Zobacz cały opis



Dodał: Uploader
Data dodania:
2016-09-10 01:15:02
Rozmiar: 38.53 GB
Ostat. aktualizacja:
2017-09-16 16:47:23
Seedów: 0
Peerów: 2


Komentarze: 0

gatunek: Biograficzny, Akcja
produkcja: USA
premiera: 20 lutego 2015 (Polska), 11 listopada 2014 (świat)
reżyseria: Clint Eastwood
scenariusz: Jason Hall
http://www.youtube.com/watch?v=99k3u9ay1gs

[opis]
===============
Historia kariery wojskowej i życia osobistego Chrisa Kyle'a, który zyskał sławę najlepszego snajpera w historii elitarnej jednostki Navy SEALs.
Wysłany do Iraku członek elitarnej jednostki Navy SEALs Chris Kyle (Bradley Cooper) ma tylko jedną misję - chronić swoich towarzyszy broni. Swoją precyzją ratuje niezliczoną ilość żołnierzy na polu bitwy. W miarę jak opowieści o jego czynach rozpowszechniają się, zyskuje sobie miano "legendy". Reputacja Kyle'a rośnie także za liniami wroga. Powstańcy uznają snajpera za ważny cel i wyznaczają nagrodę za jego głowę. Największym wyzwaniem w życiu Chrisa jest jednak pozostanie mężem i ojcem dla rodziny, od której dzieli go pół świata. Pomimo niebezpieczeństw i rozłąki z bliskimi, Chris odbywa cztery zmiany w Irak
[...]

»[Zobacz cały opis



Dodał: Uploader
Data dodania:
2016-09-10 01:15:02
Rozmiar: 9.82 GB
Ostat. aktualizacja:
2018-03-10 20:51:23
Seedów: 0
Peerów: 0


Komentarze: 0

==============
Produkcja: Wielka Brytania
Gatunek: Akcja / Komedia Kryminalna
Czas trwania: 129 min.
Premiera: 13.02.2015 - Polska / 24.01.2015 - Świat
Scenariusz: Matthew Vaughn
Reżyseria: Butch Lukic


OPIS


Ekranizacja kultowej serii opowieści rysunkowych Marka Millara (Ostateczni mściciele, Wanted - Ścigani), którą wyreżyserował Matthew Vaughn (Gwiezdny pył, Kick-Ass,X-Men: Pierwsza klasa). Nagrodzony Oscarem Colin Firth (Jak zostać królem) w roli doświadczonego agenta służb specjalnych, który bierze pod swoje skrzydła ambitnego żółtodzioba.

OBSADA

Taron Egerton ... Gary "Eggsy" Unwin
Colin Firth ... Harry Hart / Galahad
Samuel L.Jackson ... Valentine
Michael Caine ... Arthur
Mark Strong ... Merlin
Sofia Boutella ... Gazelle
Sophie Cookson ... Roxy
Mark Hamill ... Profesor Arnold


INFO

  Video
 
   Format : AVC
   Format/Info : Advanced Video Codec
   Format profile : [email protected]
   Format settings, CABAC : Yes

[...]

»[Zobacz cały opis



Dodał: Uploader
Data dodania:
2016-09-10 01:15:02
Rozmiar: 38.53 GB
Ostat. aktualizacja:
2017-10-12 20:24:03
Seedów: 0
Peerów: 0


Komentarze: 0

Snajper - American Sniper (2014) [CEE.Blu-ray.1080p.AVC.Dolby-TrueHD] [Lektor i napisy PL]


Daty premier:
11 listopada 2014 (USA)
19 maja 2015 (Blu-ray)
Produkcja: USA
Reżyseria: Clint Eastwood
Scenariusz: Jason Hall
Zdjęcia: Tom Stern
Gatunek: dramat wojenny
Czas trwania: 132 min

Obsada:
Bradley Cooper - Chris Kyle
Sienna Miller - Taya Renae Kyle
Max Charles - Colton Kyle
Luke Grimes - Bosman Marc Lee
Kyle Gallner - Goat-Winston
Sam Jaeger - Kapitan Martens
Jake McDorman - bosmanmat Ryan "Biggles" Job
Cory Hardrict - 'D' / Dandridge
Eric Ladin - Squrrel

Screenshots:
http://www.blu-ray.com/movies/American-Sniper-Blu-ray/116019/#Screenshots
http://www.blu-ray.com/movies/American-Sniper-Blu-ray/126185/

Snajper (ang. American Sniper, 2014) - amerykański wojenny dramat biograficzny w reżyserii Clinta Eastwooda. Adaptacja biografii American Sniper Chrisa Kyle'a wydanej w Polsce pod tytułem Cel snajpera (książka napisana wraz z Scottem McEwenem i Jamesem Defel
[...]

»[Zobacz cały opis



Dodał: Uploader
Data dodania:
2016-09-10 01:15:02
Rozmiar: 8.05 GB
Ostat. aktualizacja:
2017-10-08 21:19:26
Seedów: 0
Peerów: 0


Komentarze: 0

Produkcja: USA
Gatunek: Sensacyjny
Reżyseria: Brian De Palma
Scenariusz: Robert Towne, David Koepp

Opis:
Ethan Hunt ma za zadanie złapać szpiega wykradającego dane o wielu innych informatorach. Hunt ma w dyspozycji najnowsze zdobycze techniki, popisuje się także wręcz cyrkowymi umiejętnościami.

Obsada:
Tom Cruise: Ethan Hunt
Jon Voight: Jim Phelps
Emmanuelle Béart: Claire Phelps
Henry Czerny: Eugene Kittridge
Jean Reno: Franz Krieger
Ving Rhames: Luther Stickell
Kristin Scott Thomas: Sarah Davies
Vanessa Redgrave: Max

Dane techniczne:
Video
ID : 1
Format : AVC
Format/Info : Advanced Video Codec
Format profile : [email protected]
Format settings, CABAC : Yes
Format settings, ReFrames : 5 frames
Codec ID : V_MPEG4/ISO/AVC
Duration : 1h 50mn
Bit rate : 9 680 Kbps
Width : 1 920 pixels
Height : 800 pixels
Display aspect ratio : 2.40:1
Frame rate mode : Constant
Frame rate : 23.976 fps
Color space : YUV
Chroma subsampling : 4:2:0
Bit depth : 8
[...]

»[Zobacz cały opis



Dodał: Uploader
Data dodania:
2016-09-10 01:15:02
Rozmiar: 7.65 GB
Ostat. aktualizacja:
2016-09-10 01:15:02
Seedów: 0
Peerów: 0


Komentarze: 0

Produkcja: USA
Gatunek: Komedia
Reżyseria: Glenn Ficarra, John Requa
Scenariusz: Glenn Ficarra, John Requa

Opis:
Profesjonalny oszust uczy fachu młodą dziewczynę. Tworzące się miedzy nimi uczucie komplikuje ich relacje zawodowe.

Obsada:
Will Smith...Nicky
Rodrigo Santoro...Garriga
BD Wong...Liyuan
Brennan Brown...Horst
Margot Robbie...Jess
Adrian Martinez...Farhad

Dane techniczne:
Video.......: x264 8945Kbps
Frame.Rate..: 23.976
Resolution..: 1920x1080
Audio.......: DTS 1509Kbps 6ch
Language....: English
Length......: 1h 44mn
Size........: 7829MB
Subtitles...: English

Napisy:
http://www21.zippyshare.com/v/AV2dLQT8/file.html

Trailer:
http://www.youtube.com/watch?v=MxCRgtdAuBo



Dodał: Uploader
Data dodania:
2016-09-10 01:15:02
Rozmiar: 7.99 GB
Ostat. aktualizacja:
2016-09-10 01:15:02
Seedów: 0
Peerów: 0


Komentarze: 0

Produkcja: Francja, USA, Wielka Brytania
Gatunek: Sensacyjny
Reżyseria: Pierre Morel
Scenariusz: Luc Besson, Robert Mark Kamen

Opis:
Bryan, były agent służb specjalnych, rusza do Paryża, by ratować swoją 17-letnią córkę porwaną przez gang handlujący kobietami.

Obsada:
Liam Neeson...Bryan
Maggie Grace...Kim
Famke Janssen...Lenore
Xander Berkeley...Stuart
Katie Cassidy...Amanda
Olivier Rabourdin...Jean Claude
Leland Orser...Sam

Dane techniczne:
Video
ID : 1
Format : AVC
Format/Info : Advanced Video Codec
Format profile : [email protected]
Format settings, CABAC : Yes
Format settings, ReFrames : 5 frames
Codec ID : V_MPEG4/ISO/AVC
Duration : 1h 33mn
Bit rate : 10.6 Mbps
Width : 1 920 pixels
Height : 816 pixels
Display aspect ratio : 2.35:1
Frame rate mode : Constant
Frame rate : 24.000 fps
Color space : YUV
Chroma subsampling : 4:2:0
Bit depth : 8 bits
Scan type : Progressive
Bits/(Pixel*Frame) : 0.281
Stream size : 6.77 GiB (86%)
Wri
[...]

»[Zobacz cały opis



Dodał: Uploader
Data dodania:
2016-09-10 01:15:02
Rozmiar: 28.59 GB
Ostat. aktualizacja:
2018-02-08 12:49:00
Seedów: 1
Peerów: 26


Komentarze: 0

Produkcja: Australia, USA
Gatunek: Sci-Fi
Reżyseria: George Ogilvie
Scenariusz: George Miller, Terry Hayes

Opis:
Wędrujący przez pustkowia Max dociera do miasta Bartertown. Zostaje wciągnięty w rozgrywkę między rywalizującymi o władzę Cioteczką Entity i Masterem Blasterem.

Obsada:
Mel Gibson -Mad Max
Bruce Spence - Jedediah
Adam Cockburn- Jedediah Jr.
Tina Turner - Entity
Frank Thring - Collector

Dane techniczne:
DISC INFO:
Disc Size: 30 694 736 294 bytes
Protection: AACS
BD-Java: No
BDInfo: 0.5.8

PLAYLIST REPORT:
Name: 00100.MPLS
Length: 1:46:58.286 (h:m:s.ms)
Size: 29 833 107 456 bytes
Total Bitrate: 37,19 Mbps

(*) Indicates included stream hidden by this playlist.

VIDEO:
Codec Bitrate Description
----- ------- -----------
MPEG-4 AVC Video 29634 kbps 1080p / 23,976 fps / 16:9 / High Profile 4.1

AUDIO:
Codec Language Bitrate Description
----- -------- ------- -----------
DTS-HD Master Audio English 2325 kbps 5.1 / 48 kH
[...]

»[Zobacz cały opis



Dodał: Uploader
Data dodania:
2016-09-10 01:15:02
Rozmiar: 44.19 GB
Ostat. aktualizacja:
2016-09-10 01:15:02
Seedów: 0
Peerów: 0


Komentarze: 0

Produkcja: USA
Gatunek: Akcja
Reżyseria: Justin Lin
Scenariusz: Chris Morgan, Alfredo Botello

Opis:
Pasjonat nielegalnych wyścigów samochodowych ucieka przed więzieniem do Tokio. Ale tutaj też organizowane są niebezpieczne rajdy.

Obsada:
Lucas Black...Shaun Boswell
Bow Wow...Twinkie
Brian Tee...D.K.
Nikki Griffin...Cindy
Sung Kang...Han
Jason J. Tobin...Earl
Nathalie Kelley...Neela

Dane techniczne:
DISC INFO: 
Disc Size:   47,451,313,914 bytes
Protection:   AACS
BD-Java:    Yes
BDInfo:     0.5.8

PLAYLIST REPORT:
Name:          00000.MPLS
Length:         1:44:14.122 (h:m:s.ms)
Size:          29,041,010,688 bytes
Total Bitrate:     37.15 Mbps

(*) Indicates included stream hidden by this playlist.

VIDEO:
Codec          Bitrate       Description  
-----          -------       -----------  
MPEG-4 AVC Video    21426 kbps     1080p / 23.976 fp
[...]

»[Zobacz cały opis



Dodał: Uploader
Data dodania:
2016-09-10 01:15:02
Rozmiar: 4.37 GB
Ostat. aktualizacja:
2016-09-10 01:15:02
Seedów: 0
Peerów: 0


Komentarze: 0

Star Trek: Rebelia
Star Trek: Insurrection
Gatunek: science-fiction
Data premiery: 11 grudnia 1998
Kraj produkcji: USA
Język: angielski
Czas trwania: 103 min
Reżyseria: Jonathan Frakes
Scenariusz: Rick Berman, Michael Piller
Muzyka: Jerry Goldsmith
Zdjęcia: Matthew F. Leonetti
Montaż: Peter Berger
Dystrybucja: Paamount Pictures

Star Trek: Rebelia (ang. Star Trek: Insurrection) – to dziewiąty film pełnometrażowy z serii Star Trek. Film został wyprodukowany przez Paramount Pictures w 1998, w reżyserii Jonathana Frakesa. Picard i jego załoga muszą podjąć decyzję czy pójść za głosem serca, sprzeciwić się rozkazom i uratować niewinne istoty oraz planetę, które mogą zostać zniszczone z winy Federacji.


Obsada:
Patrick Stewart - Kapitan Jean-Luc Picard
Jonathan Frakes - Komandor William T. Riker
Brent Spiner - Lt. Commander Data
LeVar Burton - Komandor Porucznik Geordi La Forge
Michael Dorn - Komandor Porucznik Worf
Gates McFadden - Doktor Beverly Crusher
Marina Sirt
[...]

»[Zobacz cały opis



Dodał: Uploader
Data dodania:
2016-09-10 01:15:02
Rozmiar: 8.75 GB
Ostat. aktualizacja:
2016-09-10 01:15:02
Seedów: 0
Peerów: 0


Komentarze: 0

Produkcja: USA
Gatunek: Dramat
Reżyseria: Martin Scorsese
Scenariusz: Mardik Martin, Paul Schrader

Opis:
Życiorys Jake'a La Motty, zawodowego mistrza wagi średniej w boksie, który na ringu odznaczał się wyjątkową brutalnością i wolą walki.

Obsada:
Robert De Niro: Jake La Motta
Cathy Moriarty: Vickie La Motta
Joe Pesci: Joey La Motta
Frank Vincent (I): Salvy
Theresa Saldana: Lenore
Frank Adonis: Patsy

Dane techniczne:
Video
ID : 1
Format : AVC
Format/Info : Advanced Video Codec
Format profile : [email protected]
Format settings, CABAC : Yes
Format settings, ReFrames : 4 frames
Codec ID : V_MPEG4/ISO/AVC
Duration : 2h 9mn
Bit rate : 8 193 Kbps
Width : 1 920 pixels
Height : 1 040 pixels
Display aspect ratio : 1.85:1
Frame rate mode : Constant
Frame rate : 23.976 fps
Color space : YUV
Chroma subsampling : 4:2:0
Bit depth : 8 bits
Scan type : Progressive
Bits/(Pixel*Frame) : 0.171
Stream size : 7.21 GiB (82%)
Writing library : x264 cor
[...]

»[Zobacz cały opis



Dodał: Uploader
Data dodania:
2016-09-10 01:15:01
Rozmiar: 3.96 GB
Ostat. aktualizacja:
2016-11-28 11:55:27
Seedów: 0
Peerów: 1


Komentarze: 1

http://iv.pl/images/85316071455756583053.jpg

http://www.filmweb.pl/film/Dobry%2C+z%C5%82y+i+zakr%C4%99cony-2008-447625
http://www.imdb.com/title/tt0901487/

reżyseria: Jee-woon Kim
scenariusz: Jee-woon Kim, Min-suk Kim
gatunek: Komedia,Western
produkcja: Korea Południowa
premiera: 24-05-2008
muzyka:     Chan Young-gyu, Dalparan
zdjęcia:    Mo-gae Lee, Chan Young-gyu
czas:      02:15:18


opis:

The story of two outlaws and a bounty hunter in 1940s Manchuria and their rivalry to possess a treasure map while being pursued by the Japanese army and Chinese bandits.

Akcja filmu rozgrywa się w 1930 w roku w okupowanej przez Japończyków Mandżurii. Złodziej Tae-gu (The Weird) w zuchwały sposób napada na japoński pociąg wojskowy, z którego kradnie tajemniczą mapę, na której zaznaczono miejsce ukrycia skarbu z dynastii Qing. Pechowo dla Tae-gu o mapie wie również bandyta Chang-yi (The Bad), który natychmiast wyrusza w pościg za złodziejem. Do walki o mapę przył
[...]

»[Zobacz cały opis



Dodał: Uploader
Data dodania:
2016-09-10 01:15:01
Rozmiar: 3.14 GB
Ostat. aktualizacja:
2016-09-10 01:15:01
Seedów: 0
Peerów: 0


Komentarze: 0

Haker - Blackhat (2015)

Info:

reżyseria: Michael Mann
scenariusz: Morgan Davis Foehl
gatunek: Kryminał, Akcja
produkcja: USA
premiera: 16 stycznia 2015 (Polska) 14 stycznia 2015 (świat)

Obsada:

Chris Hemsworth - Nick Hathaway
Leehom Wang - Chen Dawai
Wei Tang - Chen Lien
Viola Davis - Carol Barrett
Holt McCallany - Mark Jessup
Andy On - Alex Trang
Ritchie Coster - Elias Kassar
Christian Borle - Jeff Robichaud

Opis:

Amerykańskie i chińskie służby specjalne sprzymierzają się w walce z niebezpieczną cyber-mafią. Na ich czele staje zwolniony z więzienia za przestępstwa komputerowe legendarny haker - Nicholas Hathaway (Chris Hemsworth). Międzynarodowe śledztwo zaprowadzi superhakera aż do Hongkongu i Dżakarty.

Screenshot:

http://i.imgur.com/sy4kdtO.jpg
http://i.imgur.com/mHG0EYm.jpg
http://i.imgur.com/IeSkGpx.jpg
http://i.imgur.com/l3LJgMO.jpg
http://i.imgur.com/ZM0iK0c.jpg

Dane Techniczne:

Format           : Matroska
Format version 
[...]

»[Zobacz cały opis



Dodał: Uploader
Data dodania:
2016-09-10 01:15:01
Rozmiar: 36.70 GB
Ostat. aktualizacja:
2018-06-15 18:57:50
Seedów: 4
Peerów: 2


Komentarze: 0

Produkcja: USA, Wielka Brytania
Gatunek: Thriller, Sci-Fi
Data premiery: 2015-01-21
Reżyseria: Alex Garland
Scenariusz: Alex Garland
Muzyka: Geoff Barrow, Ben Salisbury
Zdjęcia: Rob Hardy

Obsada:

Alicia Vikander jako Ava
Domhnall Gleeson jako Caleb
Oscar Isaac jako Nathan
Corey Johnson jako Jay
Sonoya Mizuno jako Kyoko
Claire Selby jako Lily


Opis filmu:
Młody programista Caleb (Domhnall Gleeson), pracujący w firmie komputerowej, wygrywa konkurs, w którym nagrodą jest możliwość spędzenia tygodnia w luksusowej posiadłości szefa firmy, Nathana (Oscar Isaac). Na miejscu okazuje się, że Nathan pracuje nad sztuczną inteligencją i chce, by Caleb przeprowadził test Turinga w celu sprawdzenia czy projekt się udał. Mężczyzna zgadza się i odbywa serię rozmów z humanoidalnym robotem o imieniu Ava (Alicia Vikander). Z biegiem czasu wywiązuje się między nimi nietypowa więź, a Caleb odkrywa, że jego szef nie powiedział mu całej prawdy o eksperymencie.

Dane techniczne:
DISC
[...]

»[Zobacz cały opis



Dodał: Uploader
Data dodania:
2016-09-10 01:15:01
Rozmiar: 9.63 GB
Ostat. aktualizacja:
2017-10-05 01:47:47
Seedów: 0
Peerów: 0


Komentarze: 0

Tytuł: Taken 3
Polski Tytuł: Uprowadzona 3
==============

Reżyseria: Olivier Megaton
Scenariusz: Luc Besson,Robert Mark Kamen
Gatunek: Sensacyjny
Produkcja: Francja
Premiera: 9 stycznia 2015 (Polska) 1 stycznia 2015 (świat)
http://www.youtube.com/watch?v=JuU0M2xBasc

[opis]
==============
Bryana Millsa nikomu przedstawiać nie trzeba. Od lat oczyszcza świat z najbardziej zwyrodniałych szumowin. Przestępcy już kilka razy próbowali go za to ukarać i za każdym razem przypłacali to życiem. Tym razem zaatakują wyjątkowo boleśnie. Gdy jego ukochana żona zostanie zamordowana, a podejrzenie padnie na niego, Bryan znów będzie musiał zrobić użytek ze ''swych wyjątkowych umiejętności'', by dorwać winnych, oczyścić się z zarzutów i przede wszystkim ochronić najdroższą córkę. Jednak tym razem wróg okaże się wyjątkowy...

[obsada]
================
* Liam Neeson - Bryan Mills
* Forest Whitaker - Franck Dotzler
* Maggie Grace - Kim
* Famke Janssen - Lenore
* Dougray Scott - Stuar
[...]

»[Zobacz cały opis



Dodał: Uploader
Data dodania:
2016-09-10 01:15:01
Rozmiar: 4.37 GB
Ostat. aktualizacja:
2016-09-10 01:15:01
Seedów: 0
Peerów: 0


Komentarze: 0

Star Trek: Pierwszy kontakt
Star Trek: First Contact
Gatunek: science fiction
Data premiery: 22 listopada 1996
Kraj produkcji: Stany Zjednoczone
Język: angielski
Czas trwania: 111 min
Reżyseria: Jonathan Frakes
Scenariusz: Rick Berman, Ronald D. Moore, Brannon Braga
Muzyka: Jerry Goldsmith

Opis fabuły:
Pierwszy film w całości poświęcony ekipie znanej z serialu Star Trek: Następne pokolenie. Załoga nowego okrętu Enterprise-E musi zmierzyć się po raz kolejny z dawnym wrogiem, zaawansowaną technicznie rasą bezlitosnych cyborgów znanych jako Borg. Tym razem cofają się oni w czasie do roku 2063, aby zmienić bieg historii i udaremnić pierwszy lot z prędkością Warp, konsekwencją którego było nawiązanie kontaktu ludzi z Wolkanami. W zmienionym biegu historii Zjednoczona Federacja Planet nigdy nie zaistniała, a Ziemię opanowali Borg.

Obsada:
Patrick Stewart - Kapitan Jean-Luc Picard
Jonathan Frakes - Komandor/Kapitan William T. Riker
Brent Spiner - Komandor Porucznik Data
L
[...]

»[Zobacz cały opis



Dodał: Uploader
Data dodania:
2016-09-10 01:15:01
Rozmiar: 10.94 GB
Ostat. aktualizacja:
2016-09-10 01:15:01
Seedów: 0
Peerów: 0


Komentarze: 0

Produkcja: USA
Gatunek: Dramat
Reżyseria: Joel Schumacher
Scenariusz: John Grisham, Akiva Goldsman

Opis:
Czarnoskóry Carl Lee zabija gwałcicieli swojej córki. Staje przed białą ławą przysięgłych na głębokim Południu USA, gdzie nadal działa Ku Klux Klan.

Obsada
Matthew McConaughey - Jake Tyler Brigance
Sandra Bullock - Ellen Roark
Samuel L. Jackson - Carl Lee Hailey
Kiefer Sutherland - Freddie Cobb
Kevin Spacey - Rufus Buckley

Dane techniczne:
SiZE.............: 59x200MB
PLAYTiME.........: 2h 29min
SUBTiTLES........: -
ViDEO RESOLUTiON.: 1080p
ViDEO CONTAiNER..: .MKV
ViDEO BiTRATE....: 9860kbps
ViDEO FORMAT.....: X264
AUDiO LANGUAGES..: ENGLISH
AUDiO FORMAT.....: DD5.1 640kbps
ASPECT RATiO.....: 2.40:1

Trailer:
http://www.youtube.com/watch?v=O90-DO9P6q0



Dodał: Uploader
Data dodania:
2016-09-10 01:15:01
Rozmiar: 21.48 GB
Ostat. aktualizacja:
2017-11-28 17:49:38
Seedów: 0
Peerów: 4


Komentarze: 0

Produkcja: Australia
Gatunek: Sensacyjny, Sci-Fi
Reżyseria: George Miller
Scenariusz: George Miller, James McCausland

Opis:
Max, policjant drogówki, naraża się gangowi motocyklowemu. Gdy bandyci zaczynają prześladować jego rodzinę, wypowiada im walkę na śmierć i życie.

Obsada:
Mel Gibson .... Max Rockatansky
Joanne Samuel .... Jessie Rockatansky
Hugh Keays-Byrne .... Toecutter
Steve Bisley .... Jim Goose
Tim Burns .... Johnny, chłopiec
Roger Ward .... Fifi Macaffee

Dane techniczne:
DISC INFO:
Disc Size: 23.065.987.080 bytes
Protection: AACS
BD-Java: No
Playlist: 00100.MPLS
Size: 22.396.176.384 bytes

Video Resolution/Codec
Video codec: MPEG-4 AVC Video, High Profile 4.1
AVG Bitrate: 24943 kbps
Video resolution: 1080p 23,976 fps
Aspect Ratio(s) 16:9
Length: 1:33:10
Total Bitrate: 32,05 Mbps

Audio Formats
English / DTS-HD Master Audio / 2.0 / 48 kHz / 1714 kbps / 16-bit (DTS Core: 2.0 / 48 kHz / 1509 kbps / 16-bit)
English / Dolby Dig
[...]

»[Zobacz cały opis



Dodał: Uploader
Data dodania:
2016-09-10 01:15:00
Rozmiar: 8.82 GB
Ostat. aktualizacja:
2016-09-10 01:15:00
Seedów: 0
Peerów: 0


Komentarze: 0

Produkcja: Francja, USA, Wielka Brytania
Gatunek: Dramat, Thriller
Reżyseria: Kevin Macdonald
Scenariusz: Billy Ray, Tony Gilroy, Matthew Michael Carnahan

Opis:
Para dziennikarzy próbuje rozwiązać tajemnicę morderstwa asystentki kongresmena.

Obsada:
Russell Crowe...Cal McAffrey
Rachel McAdams...Della Frye
Ben Affleck...Stephen Collins
Helen Mirren...Cameron Lynne
Wendy Makkena...Greer Thornton
Robin Wright...Anne Collins

Dane techniczne:
Video
ID : 1
Format : AVC
Format/Info : Advanced Video Codec
Format profile : [email protected]
Format settings, CABAC : Yes
Format settings, ReFrames : 5 frames
Codec ID : V_MPEG4/ISO/AVC
Duration : 2h 7mn
Bit rate : 8 348 Kbps
Width : 1 920 pixels
Height : 816 pixels
Display aspect ratio : 2.35:1
Frame rate mode : Constant
Frame rate : 23.976 fps
Color space : YUV
Chroma subsampling : 4:2:0
Bit depth : 8 bits
Scan type : Progressive
Bits/(Pixel*Frame) : 0.222
Stream size : 7.24 GiB (83%)
Writing
[...]

»[Zobacz cały opis



Dodał: Uploader
Data dodania:
2016-09-10 01:15:00
Rozmiar: 10.93 GB
Ostat. aktualizacja:
2016-09-10 01:15:00
Seedów: 0
Peerów: 0


Komentarze: 0

Produkcja: USA
Gatunek: Thriller
Reżyseria: Alex Proyas
Scenariusz: Ryne Douglas Pearson, Juliet Snowden, Stiles White

Opis:
Okazuje się, że dziecięcy rysunek zawiera zapowiedź największych katastrof półwiecza. Profesor astrofizyki odkrywa, że pozostały jeszcze trzy kataklizmy.

Obsada:
Nicolas Cage - Ted Myles
Rose Byrne - Diana Whelan
Chandler Canterbury - Caleb
Adrienne Pickering - Allison
Ben Mendelsohn - Phil Bergman

Dane techniczne:
Video
ID : 1
Format : AVC
Format/Info : Advanced Video Codec
Format profile : [email protected]
Format settings, CABAC : Yes
Format settings, ReFrames : 5 frames
Codec ID : V_MPEG4/ISO/AVC
Duration : 2h 1mn
Bit rate : 11.4 Mbps
Width : 1 920 pixels
Height : 816 pixels
Display aspect ratio : 2.35:1
Frame rate mode : Constant
Frame rate : 23.976 fps
Color space : YUV
Chroma subsampling : 4:2:0
Bit depth : 8 bits
Scan type : Progressive
Bits/(Pixel*Frame) : 0.303
Stream size : 9.44 GiB (86%)
Writing li
[...]

»[Zobacz cały opis



Dodał: Uploader
Data dodania:
2016-09-10 01:15:00
Rozmiar: 3.63 GB
Ostat. aktualizacja:
2016-09-10 01:15:00
Seedów: 0
Peerów: 0


Komentarze: 0

http://iv.pl/images/21219568304500855689.jpg

http://www.filmweb.pl/film/P%C5%82omie%C5%84+i+strza%C5%82a-1950-105782
http://www.imdb.com/title/tt0042464/

reżyseria: Jacques Tourneur
scenariusz: Waldo Salt
gatunek: Kostiumowy,Przygodowy,Romans
produkcja: USA
premiera: 09-07-1950
muzyka:     Max Steiner
zdjęcia:    Ernest Haller
czas:      01:28:32

opis:

Dardo, a Robin Hood-like figure, and his loyal followers use a Roman ruin in Medieval Lombardy as their headquarters as they conduct an insurgency against their Hessian conquerors.

W średniowiecznej Lombardii rządzi hrabia Hawk. Znienawidzony możnowładca ma wielu wrogów. Jednym z nich jest Dardo - łucznik, któremu Hawk uwiódł żonę. Gdy Dardo odprowadza syna do miasta na naukę, dochodzi do konfrontacji z rywalem. Dziecko zostaje uprowadzone, a jego ojciec ciężko ranny. Na szczęście udaje mu się znaleźć schronienie w górach, gdzie wraca do zdrowia pod opieką przyjaciół.
Przyłącza się do rebeliantów zb
[...]

»[Zobacz cały opis



Dodał: Uploader
Data dodania:
2016-09-10 01:15:00
Rozmiar: 1.78 GB
Ostat. aktualizacja:
2017-02-15 11:28:33
Seedów: 0
Peerów: 0


Komentarze: 0

"Niebiańska Plaża"

Reżyseria: Danny Boyle
Scenariusz: John Hodge
Gatunek: Dramat, Przygodowy, Thriller
Produkcja: USA/Wielka Brytania
Muzyka: Angelo Badalamenti
Zdjęcia: Darius Khondji
Premiera: 2 lutego 2000 (Świat), 31 marca 2000 (Polska)

Opis:

Niebiańska plaża to film z roku 2000 oparty na książce o tym samym tytule, której autorem jest Alex Garland. W głównej roli występuje Leonardo DiCaprio. Film opowiada o młodych ludziach, którzy poszukują przygód, podróżując po egzotycznych krajach. Soundtrackiem filmu był utwór "Pure Shores" w wykonaniu zespołu All Saints. Richard (DiCaprio), młody Amerykanin podróżujący po Tajlandii dowiaduje się od Szkota Daffy'ego o istnieniu egzotycznej plaży, ukrytej przed cywilizacją, na której szczęśliwie żyje niezależna grupa ludzi. Następnego dnia Daffy zostaje znaleziony martwy.
Będąc w posiadaniu tajemniczej mapy, Richard postanawia odnaleźć ten raj na ziemi wraz z parą poznanych Francuzów - Étienne'em i Françoise. Po długich poszuki
[...]

»[Zobacz cały opis



Dodał: Uploader
Data dodania:
2016-09-10 01:15:00
Rozmiar: 4.11 GB
Ostat. aktualizacja:
2018-04-26 20:56:15
Seedów: 0
Peerów: 0


Komentarze: 0

http://iv.pl/images/70606155219257391355.jpg

http://www.filmweb.pl/film/Hrabina+z+Hongkongu-1967-6247
http://www.imdb.com/title/tt0061523/

reżyseria: Charles Chaplin
scenariusz: Charles Chaplin
gatunek: Komedia rom.
produkcja: Wielka Brytania
premiera: 05-01-1967
muzyka:     Charles Chaplin
zdjęcia:    Arthur Ibbetson
czas:      01:47:58

opis:

In Hong Kong, the wealthy Ogden Mears is traveling in a transatlantic and is near to be assigned Saudi Arabia Ambassador and is divorcing from his wife Martha. His friend Harvey and he are invited by their old friend Clark to go to a nightclub with three aristocratic Russian refugees on their last night. Ogden drinks too much and spends the night with Countess Natascha. On the next morning, while sailing back home, Ogdeb finds Natascha hidden in his cabin wearing a ball gown and with no documents. The stowaway explains that she wants to go to the United States and Ogden is worried with his career. But Harvey convi
[...]

»[Zobacz cały opis

1 - 30 | 31 - 60 | 61 - 90 | ... | 3091 - 3120 | 3121 - 3150 | 3151 - 3180 | 3181 - 3210 | 3211 - 3216
<< Poprzednia      Następna >>

Żaden z plików nie znajduje się na serwerze. Torrenty są własnością użytkowników. Administrator serwisu nie może ponieść konsekwencji za to co użytkownicy wstawiają, lub za to co czynią na stronie. Nie możesz używać tego serwisu do rozpowszechniania lub ściągania materiałów do których nie masz odpowiednich praw lub licencji. Użytkownicy odpowiedzialni są za przestrzeganie tych zasad.
Copyright © 2016 Ex-torrentyorgs.com.pl

Najlepsze strony Torrentowe