4K UHD / Akcja
Niepamięć / Oblivion (2013) [2160p] [UHD] [BluRay] [X265] [IAMABLE] [ENG]


Dodał: Uploader
Data dodania:
2018-06-02 18:34:35
Rozmiar: 10.97 GB
Ostat. aktualizacja:
2018-07-11 14:43:06
Seedów: 18
Peerów: 29


Komentarze: 1

...( Info )...

Produkcja: USA
Gatunek: Akcja, Sci-Fi
Premiera: 19 kwietnia 2013 (Polska), 26 marca 2013 (świat)
Reżyseria: Joseph Kosinski
Scenariusz: Joseph Kosinski, Karl Gajdusek

...( Opis )...

Jest rok 2077: Jack Harper (Cruise) stacjonuje na ewakuowanej Ziemi, serwisując niesprawne drony. Jego misja jako część operacji mającej na celu zabezpieczenie niezbędnych surowców po dekadach wojen z obcymi dobiega końca. Za dwa tygodnie Harper dołączy do grupy ocalałych przebywających w kolonii, na księżycu Saturna - Tytanie, z dala od zniszczonego wojną świata, który kiedyś nazywał domem. Życie patrolującego niebo z wysokości tysięcy metrów Jacka ulega drastycznej zmianie, kiedy ratuje z rozbitego statku kosmicznego piękną nieznajomą. Pojawienie się kobiety daje początek łańcuchowi wydarzeń, które zmuszają Jacka do podania w wątpliwość wszystkiego, co do tej pory wiedział. Odkrywając szokującą prawdę, która łączy go z Ziemią z przeszłości, Jack zostaje zmuszony do licznych aktów odwagi. Los ludzkości spoczywa teraz w rękach człowieka, który wierzył, że nasz świat wkrótce zostanie stracony na zawsze.

...( Obsada )...

★ Tom Cruise .... Jack Harper
★ Morgan Freeman .... Malcolm Beech
★ Olga Kurylenko .... Julia
★ Andrea Riseborough .... Victoria
★ Nikolaj Coster-Waldau .... Sykes
★ Melissa Leo .... Sally
★ Zoë Bell .... Kara
★ Abigail Lowe .... Dziecko Julii

...( Dane Techniczne )...

General
Unique ID           : 177780039224226377691369847993590828990 0x85BF30AAC32CDCAFB3EBC066F56B4FBE
Complete name         : Oblivion.2013.2160p.UHD.BluRay.X265-IAMABLE.mkv
Format             : Matroska
Format version         : Version 4 / Version 2
File size           : 10.9 GiB
Duration            : 2h 4mn
Overall bit rate mode     : Variable
Overall bit rate        : 12.5 Mbps
Encoded date          : UTC 2018-06-02 10:03:08
Writing application      : mkvmerge v9.9.0 Pick Up 32bit
Writing library        : libebml v1.3.4 libmatroska v1.4.5

Video
ID               : 1
Format             : HEVC
Format/Info          : High Efficiency Video Coding
Format profile         : Main 10L5.1High
Codec ID            : V_MPEGH/ISO/HEVC
Duration            : 2h 4mn
Bit rate            : 7 177 Kbps
Width             : 3 840 pixels
Height             : 1 600 pixels
Display aspect ratio      : 2.40:1
Frame rate mode        : Constant
Frame rate           : 23.976 24000/1001 fps
Color space          : YUV
Chroma subsampling       : 4:2:0 Type 2
Bit depth           : 10 bits
Bits/PixelFrame       : 0.049
Stream size          : 6.25 GiB 57
Writing library        : x265 2.614-f09f3b4a2115:WindowsGCC 7.2.064 bit 10bit
Encoding settings       : cpuid1173503 / frame-threads4 / numa-pools16 / wpp / no-pmode / no-pme / no-psnr / no-ssim / log-level2 / input-csp1 / input-res3840x1600 / interlace0 / total-frames179267 / level-idc51 / high-tier1 / uhd-bd0 / ref4 / no-allow-non-conformance / repeat-headers / annexb / aud / hrd / info / hash0 / no-temporal-layers / no-open-gop / min-keyint24 / keyint240 / gop-lookahead0 / bframes4 / b-adapt2 / b-pyramid / bframe-bias0 / rc-lookahead25 / lookahead-slices4 / scenecut40 / no-intra-refresh / ctu64 / min-cu-size8 / rect / no-amp / max-tu-size32 / tu-inter-depth1 / tu-intra-depth1 / limit-tu0 / rdoq-level2 / dynamic-rd0.00 / no-ssim-rd / signhide / no-tskip / nr-intra0 / nr-inter0 / no-constrained-intra / no-strong-intra-smoothing / max-merge3 / limit-refs3 / limit-modes / me3 / subme3 / merange57 / temporal-mvp / weightp / no-weightb / no-analyze-src-pics / deblock-3:-3 / no-sao / no-sao-non-deblock / rd4 / no-early-skip / rskip / no-fast-intra / no-tskip-fast / no-cu-lossless / no-b-intra / no-splitrd-skip / rdpenalty0 / psy-rd2.00 / psy-rdoq1.00 / no-rd-refine / analysis-reuse-mode0 / no-lossless / cbqpoffs0 / crqpoffs0 / rccrf / crf17.0 / qcomp0.60 / qpstep4 / stats-write0 / stats-read0 / vbv-maxrate160000 / vbv-bufsize160000 / vbv-init0.9 / crf-max0.0 / crf-min0.0 / ipratio1.40 / pbratio1.30 / aq-mode1 / aq-strength1.00 / cutree / zone-count0 / no-strict-cbr / qg-size32 / no-rc-grain / qpmax69 / qpmin0 / no-const-vbv / sar1 / overscan0 / videoformat5 / range0 / colorprim9 / transfer16 / colormatrix9 / chromaloc1 / chromaloc-top2 / chromaloc-bottom2 / display-window0 / master-displayG1325034500B75003000R3400016000WP1563516450L1000000050 / max-cll1000400 / min-luma0 / max-luma1023 / log2-max-poc-lsb8 / vui-timing-info / vui-hrd-info / slices1 / opt-qp-pps / opt-ref-list-length-pps / no-multi-pass-opt-rps / scenecut-bias0.05 / no-opt-cu-delta-qp / no-aq-motion / hdr / hdr-opt / no-dhdr10-opt / analysis-reuse-level5 / scale-factor0 / refine-intra0 / refine-inter0 / refine-mv0 / no-limit-sao / ctu-info0 / no-lowpass-dct / refine-mv-type0 / copy-pic1
Default            : Yes
Forced             : No
Color range          : Limited
Color primaries        : BT.2020
Transfer characteristics    : SMPTE ST 2084
Matrix coefficients      : BT.2020 non-constant
Mastering display color primar : R: x0.680000 y0.320000 G: x0.265000 y0.690000 B: x0.150000 y0.060000 White point: x0.312700 y0.329000
Mastering display luminance  : min: 0.0050 cd/m2 max: 1000.0000 cd/m2
Maximum Content Light Level  : 1000 cd/m2
Maximum Frame-Average Light Le : 400 cd/m2

Audio 1
ID               : 2
Format             : Atmos / TrueHD
Codec ID            : A_TRUEHD
Duration            : 2h 4mn
Bit rate mode         : Variable
Bit rate            : 4 309 Kbps
Maximum bit rate        : 7 854 Kbps
Channels           : Object Based / 8 channels
Channel positions       : Object Based / Front: L C R Side: L R Back: L R LFE
Sampling rate         : / 48.0 KHz
Frame rate           : 1 200.000 fps 40 spf
Compression mode        : Lossless
Stream size          : 3.75 GiB 34
Title             : Atmos
Language            : English
Default            : Yes
Forced             : No

Audio 2
ID               : 3
Format             : AC-3
Format/Info          : Audio Coding 3
Mode extension         : CM complete main
Format settings Endianness  : Big
Codec ID            : A_AC3
Duration            : 2h 4mn
Bit rate mode         : Constant
Bit rate            : 640 Kbps
Channels           : 6 channels
Channel positions       : Front: L C R Side: L R LFE
Sampling rate         : 48.0 KHz
Frame rate           : 31.250 fps 1536 spf
Compression mode        : Lossy
Stream size          : 570 MiB 5
Language            : English
Default            : No
Forced             : No

Audio 3
ID               : 4
Format             : AC-3
Format/Info          : Audio Coding 3
Mode extension         : CM complete main
Format settings Endianness  : Big
Codec ID            : A_AC3
Duration            : 2h 4mn
Bit rate mode         : Constant
Bit rate            : 192 Kbps
Channels           : 2 channels
Channel positions       : Front: L R
Sampling rate         : 48.0 KHz
Frame rate           : 31.250 fps 1536 spf
Compression mode        : Lossy
Stream size          : 171 MiB 2
Title             : Commentary with Director Joseph Kosinski and Actor Tom Cruise
Language            : English
Default            : No
Forced             : No

Text 1
ID               : 5
Format             : UTF-8
Codec ID            : S_TEXT/UTF8
Codec ID/Info         : UTF-8 Plain Text
Duration            : 1h 57mn
Bit rate            : 31 bps
Count of elements       : 953
Stream size          : 27.3 KiB 0
Title             : Stripped SRT not positioned
Language            : English
Default            : No
Forced             : No

Text 2
ID               : 6
Format             : PGS
Muxing mode          : zlib
Codec ID            : S_HDMV/PGS
Codec ID/Info         : Picture based subtitle format used on BDs/HD-DVDs
Duration            : 1h 57mn
Bit rate            : 6 931 bps
Count of elements       : 2052
Stream size          : 5.83 MiB 0
Title             : SDH
Language            : English
Default            : No
Forced             : No

Text 3
ID               : 7
Format             : UTF-8
Codec ID            : S_TEXT/UTF8
Codec ID/Info         : UTF-8 Plain Text
Duration            : 1h 57mn
Bit rate            : 33 bps
Count of elements       : 1026
Stream size          : 28.8 KiB 0
Title             : SDH SRT not positioned
Language            : English
Default            : No
Forced             : No

Text 4
ID               : 8
Format             : PGS
Muxing mode          : zlib
Codec ID            : S_HDMV/PGS
Codec ID/Info         : Picture based subtitle format used on BDs/HD-DVDs
Duration            : 2h 3mn
Bit rate            : 19.2 Kbps
Count of elements       : 3996
Stream size          : 17.0 MiB 0
Title             : Commentary with Director Joseph Kosinski and Actor Tom Cruise
Language            : English
Default            : No
Forced             : No

Text 5
ID               : 9
Format             : PGS
Muxing mode          : zlib
Codec ID            : S_HDMV/PGS
Codec ID/Info         : Picture based subtitle format used on BDs/HD-DVDs
Duration            : 2h 3mn
Bit rate            : 5 503 bps
Count of elements       : 1832
Stream size          : 4.88 MiB 0
Language            : French
Default            : No
Forced             : No

Text 6
ID               : 10
Format             : PGS
Muxing mode          : zlib
Codec ID            : S_HDMV/PGS
Codec ID/Info         : Picture based subtitle format used on BDs/HD-DVDs
Duration            : 2h 4mn
Bit rate            : 17.6 Kbps
Count of elements       : 4004
Stream size          : 15.7 MiB 0
Title             : Commentary with Director Joseph Kosinski and Actor Tom Cruise
Language            : French
Default            : No
Forced             : No

Text 7
ID               : 11
Format             : PGS
Muxing mode          : zlib
Codec ID            : S_HDMV/PGS
Codec ID/Info         : Picture based subtitle format used on BDs/HD-DVDs
Duration            : 2h 3mn
Bit rate            : 6 329 bps
Count of elements       : 1892
Stream size          : 5.61 MiB 0
Language            : German
Default            : No
Forced             : No

Text 8
ID               : 12
Format             : PGS
Muxing mode          : zlib
Codec ID            : S_HDMV/PGS
Codec ID/Info         : Picture based subtitle format used on BDs/HD-DVDs
Duration            : 2h 4mn
Bit rate            : 19.4 Kbps
Count of elements       : 4008
Stream size          : 17.3 MiB 0
Title             : Commentary with Director Joseph Kosinski and Actor Tom Cruise
Language            : German
Default            : No
Forced             : No

Text 9
ID               : 13
Format             : PGS
Muxing mode          : zlib
Codec ID            : S_HDMV/PGS
Codec ID/Info         : Picture based subtitle format used on BDs/HD-DVDs
Duration            : 2h 3mn
Bit rate            : 5 143 bps
Count of elements       : 1584
Stream size          : 4.56 MiB 0
Language            : Dutch
Default            : No
Forced             : No

Text 10
ID               : 14
Format             : PGS
Muxing mode          : zlib
Codec ID            : S_HDMV/PGS
Codec ID/Info         : Picture based subtitle format used on BDs/HD-DVDs
Duration            : 2h 3mn
Bit rate            : 5 448 bps
Count of elements       : 1726
Stream size          : 4.83 MiB 0
Language            : Swedish
Default            : No
Forced             : No

Text 11
ID               : 15
Format             : PGS
Muxing mode          : zlib
Codec ID            : S_HDMV/PGS
Codec ID/Info         : Picture based subtitle format used on BDs/HD-DVDs
Duration            : 2h 3mn
Bit rate            : 5 106 bps
Count of elements       : 1744
Stream size          : 4.53 MiB 0
Language            : Norwegian
Default            : No
Forced             : No

Text 12
ID               : 16
Format             : PGS
Muxing mode          : zlib
Codec ID            : S_HDMV/PGS
Codec ID/Info         : Picture based subtitle format used on BDs/HD-DVDs
Duration            : 2h 3mn
Bit rate            : 5 392 bps
Count of elements       : 1572
Stream size          : 4.78 MiB 0
Language            : Danish
Default            : No
Forced             : No

Text 13
ID               : 17
Format             : PGS
Muxing mode          : zlib
Codec ID            : S_HDMV/PGS
Codec ID/Info         : Picture based subtitle format used on BDs/HD-DVDs
Duration            : 2h 3mn
Bit rate            : 4 284 bps
Count of elements       : 1410
Stream size          : 3.80 MiB 0
Language            : Finnish
Default            : No
Forced             : No

Text 14
ID               : 18
Format             : PGS
Muxing mode          : zlib
Codec ID            : S_HDMV/PGS
Codec ID/Info         : Picture based subtitle format used on BDs/HD-DVDs
Duration            : 2h 3mn
Bit rate            : 6 282 bps
Count of elements       : 1872
Stream size          : 5.57 MiB 0
Language            : Greek
Default            : No
Forced             : No

Text 15
ID               : 19
Format             : PGS
Muxing mode          : zlib
Codec ID            : S_HDMV/PGS
Codec ID/Info         : Picture based subtitle format used on BDs/HD-DVDs
Duration            : 2h 3mn
Bit rate            : 5 942 bps
Count of elements       : 1892
Stream size          : 5.27 MiB 0
Language            : Turkish
Default            : No
Forced             : No

Text 16
ID               : 20
Format             : PGS
Muxing mode          : zlib
Codec ID            : S_HDMV/PGS
Codec ID/Info         : Picture based subtitle format used on BDs/HD-DVDs
Duration            : 2h 0mn
Bit rate            : 6 119 bps
Count of elements       : 1860
Stream size          : 5.29 MiB 0
Language            : Japanese
Default            : No
Forced             : No

Text 17
ID               : 21
Format             : PGS
Muxing mode          : zlib
Codec ID            : S_HDMV/PGS
Codec ID/Info         : Picture based subtitle format used on BDs/HD-DVDs
Duration            : 2h 3mn
Bit rate            : 14.0 Kbps
Count of elements       : 3104
Stream size          : 12.4 MiB 0
Title             : Commentary with Director Joseph Kosinski and Actor Tom Cruise
Language            : Japanese
Default            : No
Forced             : No

Text 18
ID               : 22
Format             : UTF-8
Codec ID            : S_TEXT/UTF8
Codec ID/Info         : UTF-8 Plain Text
Duration            : 1h 57mn
Bit rate            : 49 bps
Count of elements       : 783
Stream size          : 42.7 KiB 0
Title             : bg
Language            : Bulgarian
Default            : Yes
Forced             : No

Text 19
ID               : 23
Format             : UTF-8
Codec ID            : S_TEXT/UTF8
Codec ID/Info         : UTF-8 Plain Text
Duration            : 1h 57mn
Bit rate            : 35 bps
Count of elements       : 979
Stream size          : 31.0 KiB 0
Title             : ro
Language            : Romanian
Default            : No
Forced             : No

Text 20
ID               : 24
Format             : UTF-8
Codec ID            : S_TEXT/UTF8
Codec ID/Info         : UTF-8 Plain Text
Duration            : 1h 58mn
Bit rate            : 28 bps
Count of elements       : 835
Stream size          : 24.7 KiB 0
Title             : pl
Language            : Polish
Default            : No
Forced             : No

Menu
00:00:00.000          : en:00:00:00.000
00:04:31.354          : en:00:04:31.354
00:12:51.813          : en:00:12:51.813
00:21:25.284          : en:00:21:25.284
00:27:20.138          : en:00:27:20.138
00:35:30.337          : en:00:35:30.337
00:40:06.779          : en:00:40:06.779
00:46:16.023          : en:00:46:16.023
00:52:22.181          : en:00:52:22.181
01:01:59.716          : en:01:01:59.716
01:07:59.409          : en:01:07:59.409
01:16:25.831          : en:01:16:25.831
01:22:08.173          : en:01:22:08.173
01:25:31.752          : en:01:25:31.752
01:30:22.542          : en:01:30:22.542
01:36:30.368          : en:01:36:30.368
01:40:29.106          : en:01:40:29.106
01:46:27.423          : en:01:46:27.423
01:53:05.320          : en:01:53:05.320
01:58:23.847          : en:01:58:23.847

Lista plików Show/Hide [Pokaż/Ukryj]
Trackery
  • udp://9.rarbg.me:2710/announce
  • udp://tracker.opentrackr.org:1337/announce
  • udp://tracker.coppersurfer.tk:6969/announce
  • udp://www.eddie4.nl:6969/announce
  • udp://tracker.leechers-paradise.org:6969/announce
  • udp://tracker.torrent.eu.org:451/announce
  • http://p2p-torrent.ru.tf/announce.php?pid=b25d1a88159deed69a

<< Poprzednia      Następna >>
1 - 1

Dodał: rasta40 Data: 2018-06-03 10:27:52

Jakim darmowy program na PC polecacie do odtworzenia tych filmów?

1 - 1
<< Poprzednia      Następna >>

Żaden z plików nie znajduje się na serwerze. Torrenty są własnością użytkowników. Administrator serwisu nie może ponieść konsekwencji za to co użytkownicy wstawiają, lub za to co czynią na stronie. Nie możesz używać tego serwisu do rozpowszechniania lub ściągania materiałów do których nie masz odpowiednich praw lub licencji. Użytkownicy odpowiedzialni są za przestrzeganie tych zasad.
Copyright © 2018 Ex-torrenty.org

Najlepsze strony Torrentowe