x264 / Horror
Day of the Dead 2 Contagium *2005* [720p] [BluRay] [H264] [AAC] [RARBG] [ENG]


Dodał: Uploader
Data dodania:
2018-06-12 17:25:40
Rozmiar: 1.25 GB
Ostat. aktualizacja:
2018-06-12 18:55:28
Seedów: 46
Peerów: 28


Komentarze: 0

...( Info )...

Produkcja: USA
Gatunek: Horror
Premiera: 11 sierpnia 2005 (świat)
Reżyseria: James Glenn Dudelson
Scenariusz: Ana Clavell

...( Opis )...

Rok 1968, Pensylwania. W wojskowym szpitalu wybucha epidemia. Zarażony personel i pacjenci zostają zabici, a następnie spaleni. Po kilku latach nieruchomość przekształca się w szpital dla chorych psychicznie. Kilku nieświadomych pacjentów ponownie uwalnia wirus, którego działanie zmienia ich w żądne ludzkiego mięsa bestie. Ugryzienie przez zarażoną osobę powoduje przenoszenie "choroby". Kilkoro ocalałych bohaterów postanawia stanąć do walki z monstrami. Czy zwyciężą...?

...( Obsada )...

★ Stephen Sanders .... Gornick
★ Brandon Reininger .... Thomas
★ Anna Lerbom .... Shirley
★ Stan Klimecko .... Boris
★ Justin Ipock .... Isaac Mills
★ John F. Henry II .... Jackie
★ Melissa Frederick .... Missy
★ Christopher Estes .... Charlie

...( Dane Techniczne )...

Video
ID : 1
Format : AVC
Format/Info : Advanced Video Codec
Format profile : [email protected]
Format settings : CABAC / 4 Ref Frames
Format settings, CABAC : Yes
Format settings, ReFrames : 4 frames
Codec ID : avc1
Codec ID/Info : Advanced Video Coding
Duration : 1 h 43 min
Bit rate : 1 500 kb/s
Width : 1 280 pixels
Height : 720 pixels
Display aspect ratio : 16:9
Frame rate mode : Constant
Frame rate : 23.976 (23976/1000) FPS
Color space : YUV
Chroma subsampling : 4:2:0
Bit depth : 8 bits
Scan type : Progressive
Bits/(Pixel*Frame) : 0.068
Stream size : 1.08 GiB (87%)
Writing library : x264 core 152 r2851M ba24899
Encoding settings : cabac=1 / ref=4 / deblock=1:-1:-1 / analyse=0x3:0x113 / me=umh / subme=9 / psy=1 / psy_rd=1.00:0.15 / mixed_ref=1 / me_range=24 / chroma_me=1 / trellis=2 / 8x8dct=1 / cqm=0 / deadzone=21,11 / fast_pskip=1 / chroma_qp_offset=-3 / threads=32 / lookahead_threads=4 / sliced_threads=0 / nr=0 / decimate=1 / interlaced=0 / bluray_compat=0 / constrained_intra=0 / bframes=3 / b_pyramid=2 / b_adapt=2 / b_bias=0 / direct=3 / weightb=1 / open_gop=0 / weightp=2 / keyint=250 / keyint_min=25 / scenecut=40 / intra_refresh=0 / rc_lookahead=50 / rc=2pass / mbtree=1 / bitrate=1500 / ratetol=1.0 / qcomp=0.60 / qpmin=0 / qpmax=69 / qpstep=4 / cplxblur=20.0 / qblur=0.5 / vbv_maxrate=31250 / vbv_bufsize=31250 / nal_hrd=none / filler=0 / ip_ratio=1.40 / aq=3:1.00
Encoded date : UTC 2018-06-11 16:02:25
Tagged date : UTC 2018-06-11 16:02:25

Audio
ID : 2
Format : AAC
Format/Info : Advanced Audio Codec
Format profile : LC
Codec ID : mp4a-40-2
Duration : 1 h 43 min
Bit rate mode : Constant
Bit rate : 224 kb/s
Channel(s) : 2 channels
Channel(s)_Original : 6 channels
Channel positions : Front: L C R, Side: L R, LFE
Sampling rate : 48.0 kHz
Frame rate : 46.875 FPS (1024 SPF)
Compression mode : Lossy
Stream size : 166 MiB (13%)
Language : English
Default : Yes
Alternate group : 1
Encoded date : UTC 2018-06-11 16:02:25
Tagged date : UTC 2018-06-11 16:02:25

Lista plików Show/Hide [Pokaż/Ukryj]
Trackery
  • udp://9.rarbg.to:2710/announce
  • udp://9.rarbg.me:2710/announce
  • http://tracker.trackerfix.com:80/announce

Brak komentarzy!

Żaden z plików nie znajduje się na serwerze. Torrenty są własnością użytkowników. Administrator serwisu nie może ponieść konsekwencji za to co użytkownicy wstawiają, lub za to co czynią na stronie. Nie możesz używać tego serwisu do rozpowszechniania lub ściągania materiałów do których nie masz odpowiednich praw lub licencji. Użytkownicy odpowiedzialni są za przestrzeganie tych zasad.
Copyright © 2016 Ex-torrentyorgs.com.pl

Najlepsze strony Torrentowe