TV / Sci-Fi
The Crossing S01E10 - The Androcles Option [1080p.WEB-DL.H.264.AC3] [Lektor PL] [ENG+Napisy PL]


Dodał: Lukarusi
Data dodania:
2018-06-13 07:08:20
Rozmiar: 1.72 GB
Ostat. aktualizacja:
2018-06-13 10:25:32
Seedów: 328
Peerów: 392


Komentarze: 1

Info:

produkcja: USA
gatunek: Sci-Fi, Dramat, Przygodowy
reżyseria: Rob Bowman, Jeffrey G. Hunt, Alex Zakrzewski
scenariusz: Jay Beattie, Dan Dworkin
muzyka: Robert Duncan
zdjęcia: Brian Pearson, Thomas Yatsko
czas trwania: ok. 42 min.

Opis:

Uchodźcy z odległej przyszłości uciekają z rozdartego wojną kraju. Szukając azylu, cofają się w czasie o 250 lat i zaczynają pojawiać się w jednym z amerykańskich miasteczek.

Obsada:

Natalie Martinez - Reece
Tommy Bastow - Marshall
Rob Campbell - Paul
Marcuis Harris - Caleb
Jay Karnes - Craig Lindauer
Luc Roderique - Bryce Foster
Bailey Skodje - Leah
Sandrine Holt - Emma Peralta
Steve Zahn - Jude Ellis
Simone Kessell - Rebecca
Grant Harvey - Roy Aronson
Kelley Missal - Hannah
Rick Gomez - Nestor Rosario

Dane techniczne:

Format : Matroska
Format version : Version 4 / Version 2
File size : 1.72 GiB
Duration : 42 min 15 s
Overall bit rate : 5 825 kb/s
Encoded date : UTC 2018-06-13 04:59:16

Video
ID : 1
Format : AVC
Format/Info : Advanced Video Codec
Format profile : High@L4
Format settings : CABAC / 4 Ref Frames
Format settings, CABAC : Yes
Format settings, ReFrames : 4 frames
Codec ID : V_MPEG4/ISO/AVC
Duration : 42 min 15 s
Bit rate mode : Constant
Bit rate : 5 242 kb/s
Width : 1 920 pixels
Height : 1 080 pixels
Display aspect ratio : 16:9
Frame rate mode : Constant
Frame rate : 23.976 (24000/1001) FPS
Color space : YUV
Chroma subsampling : 4:2:0
Bit depth : 8 bits
Scan type : Progressive
Bits/(Pixel*Frame) : 0.105
Stream size : 1.49 GiB (87%)
Color range : Limited
Color primaries : BT.709
Transfer characteristics : BT.709
Matrix coefficients : BT.709

Audio 1
ID : 2
Format : AC-3
Format/Info : Audio Coding 3
Codec ID : A_AC3
Duration : 42 min 15 s
Bit rate mode : Constant
Bit rate : 384 kb/s
Channel(s) : 2 channels
Channel positions : Front: L R
Sampling rate : 48.0 kHz
Frame rate : 31.250 FPS (1536 SPF)
Bit depth : 16 bits
Compression mode : Lossy
Stream size : 116 MiB (7%)
Language : Polish
Service kind : Complete Main
Default : Yes
Forced : Yes

Audio 2
ID : 3
Format : AC-3
Format/Info : Audio Coding 3
Codec ID : A_AC3
Duration : 42 min 15 s
Bit rate mode : Constant
Bit rate : 384 kb/s
Channel(s) : 6 channels
Channel positions : Front: L C R, Side: L R, LFE
Sampling rate : 48.0 kHz
Frame rate : 31.250 FPS (1536 SPF)
Bit depth : 16 bits
Compression mode : Lossy
Stream size : 116 MiB (7%)
Language : English
Service kind : Complete Main
Default : No
Forced : No

Text
ID : 4
Format : UTF-8
Codec ID : S_TEXT/UTF8
Codec ID/Info : UTF-8 Plain Text
Duration : 41 min 31 s
Bit rate : 52 b/s
Count of elements : 483
Stream size : 16.1 KiB (0%)
Language : Polish
Default : No
Forced : No

Lista plików Show/Hide [Pokaż/Ukryj]
Trackery
  • http://tracker.vanitycore.co:6969/announce
  • udp://9.rarbg.com:2800/announce
  • udp://9.rarbg.me:2740/announce
  • udp://tracker.leechers-paradise.org:6969/announce
  • udp://eddie4.nl:6969/announce
  • udp://shadowshq.eddie4.nl:6969/announce
  • udp://exodus.desync.com:6969/announce
  • http://tracker.torrentyorg.pl/announce
  • udp://tracker.glotorrents.com:6969/announce
  • udp://torrent.gresille.org:80/announce
  • udp://tracker.openbittorrent.com:80/announce
  • udp://10.rarbg.com/announce
  • udp://sugoi.pomf.se:80/announce
  • udp://tracker.pomf.se:80/announce
  • udp://poloniumsurfer.tk:6969/announce
  • http://tracker.tfile.me/announce
  • http://retracker.omsk.ru:2710/announce
  • udp://t1.pow7.com/announce
  • http://agusiq-torrents.pl:6969/announce
  • udp://tracker.publicbt.com/announce
  • udp://tracker.torrentbay.to:6969/announce
  • udp://tracker.prq.to/announce
  • http://tracker.filetracker.pl:8089/announce
  • udp://tracker.istole.it:80/announce
  • http://mgtracker.org:2710/announce

<< Poprzednia      Następna >>
1 - 1

Dodał: mist Data: 2018-06-13 08:40:44

Lukarusi, masz świetne i szybkie wstawki,
ale dlaczego takie wielkie?!
1,7 gb za 40minutowy odcinek to przesada.

1 - 1
<< Poprzednia      Następna >>

Żaden z plików nie znajduje się na serwerze. Torrenty są własnością użytkowników. Administrator serwisu nie może ponieść konsekwencji za to co użytkownicy wstawiają, lub za to co czynią na stronie. Nie możesz używać tego serwisu do rozpowszechniania lub ściągania materiałów do których nie masz odpowiednich praw lub licencji. Użytkownicy odpowiedzialni są za przestrzeganie tych zasad.
Copyright © 2016 Ex-torrentyorgs.com.pl

Najlepsze strony Torrentowe