TV / Animowany
Egzorcysta S02E05 - Lampa Dżina [1080p.WEB-DL.H.264.AC3] [PL]


Dodał: Lukarusi
Data dodania:
2018-06-14 17:38:30
Rozmiar: 554.76 MB
Ostat. aktualizacja:
2018-06-14 22:04:16
Seedów: 617
Peerów: 191


Komentarze: 0

Info:

produkcja: PL
gatunek: Komedia, Animacja
twórca: Bartosz Walaszek
czas trwania: ok. 10 min.

Opis:

Egzorcysta to człowiek do którego dzwoni się w ostateczności. Na co dzień zajmuje się pracami budowlano-remontowymi. Ale w ramach powołania – walczy z demonami, wampirami, duchami i tym podobnym cholerstwem.

Dane techniczne:

Format : Matroska
Format version : Version 4 / Version 2
File size : 555 MiB
Duration : 9 min 44 s
Overall bit rate mode : Variable
Overall bit rate : 7 969 kb/s
Encoded date : UTC 2018-06-14 15:21:55

Video
ID : 1
Format : AVC
Format/Info : Advanced Video Codec
Format profile : High@L4
Format settings : CABAC / 4 Ref Frames
Format settings, CABAC : Yes
Format settings, ReFrames : 4 frames
Codec ID : V_MPEG4/ISO/AVC
Duration : 9 min 43 s
Bit rate mode : Variable
Bit rate : 7 583 kb/s
Maximum bit rate : 12.0 Mb/s
Width : 1 920 pixels
Height : 860 pixels
Display aspect ratio : 2.2:1
Frame rate mode : Constant
Frame rate : 29.970 (29970/1000) FPS
Color space : YUV
Chroma subsampling : 4:2:0
Bit depth : 8 bits
Scan type : Progressive
Bits/(Pixel*Frame) : 0.153
Stream size : 528 MiB (95%)
Color range : Limited
Color primaries : BT.709
Transfer characteristics : BT.709
Matrix coefficients : BT.709

Audio
ID : 2
Format : AC-3
Format/Info : Audio Coding 3
Codec ID : A_AC3
Duration : 9 min 44 s
Bit rate mode : Constant
Bit rate : 384 kb/s
Channel(s) : 2 channels
Channel positions : Front: L R
Sampling rate : 48.0 kHz
Frame rate : 31.250 FPS (1536 SPF)
Bit depth : 16 bits
Compression mode : Lossy
Stream size : 26.7 MiB (5%)
Language : Polish
Service kind : Complete Main

Lista plików Show/Hide [Pokaż/Ukryj]
Trackery
  • udp://tracker.leechers-paradise.org:6969/announce
  • udp://shadowshq.eddie4.nl:6969/announce
  • udp://eddie4.nl:6969/announce
  • http://tracker.vanitycore.co:6969/announce
  • udp://9.rarbg.com:2800/announce
  • udp://9.rarbg.me:2740/announce
  • udp://exodus.desync.com:6969/announce
  • http://tracker.torrentyorg.pl/announce
  • udp://poloniumsurfer.tk:6969/announce
  • http://tracker.filetracker.pl:8089/announce
  • udp://torrent.gresille.org:80/announce
  • udp://tracker.pomf.se:80/announce
  • udp://tracker.openbittorrent.com:80/announce
  • udp://sugoi.pomf.se:80/announce
  • udp://tracker.glotorrents.com:6969/announce
  • udp://10.rarbg.com/announce
  • http://mgtracker.org:2710/announce
  • udp://tracker.istole.it:80/announce
  • udp://tracker.prq.to/announce
  • udp://tracker.torrentbay.to:6969/announce
  • udp://tracker.publicbt.com/announce
  • http://retracker.omsk.ru:2710/announce
  • udp://t1.pow7.com/announce
  • http://agusiq-torrents.pl:6969/announce
  • http://tracker.tfile.me/announce

Brak komentarzy!

Żaden z plików nie znajduje się na serwerze. Torrenty są własnością użytkowników. Administrator serwisu nie może ponieść konsekwencji za to co użytkownicy wstawiają, lub za to co czynią na stronie. Nie możesz używać tego serwisu do rozpowszechniania lub ściągania materiałów do których nie masz odpowiednich praw lub licencji. Użytkownicy odpowiedzialni są za przestrzeganie tych zasad.
Copyright © 2016 Ex-torrentyorgs.com.pl

Najlepsze strony Torrentowe