TV / Akcja
Six S02E04 - Seesaw [1080p.WEB-DL.H.264.AC3] [Lektor PL]


Dodał: Lukarusi
Data dodania:
2018-06-14 18:17:19
Rozmiar: 1.64 GB
Ostat. aktualizacja:
2018-06-14 23:05:46
Seedów: 464
Peerów: 316


Komentarze: 0

Info:

produkcja: USA
gatunek: Akcja, Dramat
reżyseria: Mikael Salomon, Kimberly Peirce
scenariusz: David Broyles, Max Adams, William Broyles Jr.
muzyka: Marco Beltrami, Dennis Smith
zdjęcia: Armando Salas
czas trwania: ok. 43 min.

Opis:

Drugi sezon serialu opowiadającego o amerykańskim oddziale do zadań specjalnych walczącym z wrogami Ameryki.

Obsada:

Barry Sloane - Joe 'Bear' Graves
Kyle Schmid - Alex Caulder
Juan Pablo Raba - Ricky 'Buddha' Ortiz
Edwin Hodge - Robert Chase III
Brianne Davis - Lena Graves
Dominic Adams - Michael Nasry
Jessica Garza - Anabel Ortiz
Olivia Munn - Gina
Eric Ladin - Trevor
Katherine Evans - Marissa

Dane techniczne:

Format : Matroska
Format version : Version 4 / Version 2
File size : 1.64 GiB
Duration : 42 min 45 s
Overall bit rate mode : Constant
Overall bit rate : 5 499 kb/s
Encoded date : UTC 2018-06-14 16:09:22

Video
ID : 1
Format : AVC
Format/Info : Advanced Video Codec
Format profile : High@L4
Format settings : CABAC / 4 Ref Frames
Format settings, CABAC : Yes
Format settings, ReFrames : 4 frames
Codec ID : V_MPEG4/ISO/AVC
Duration : 42 min 45 s
Bit rate mode : Constant
Bit rate : 5 250 kb/s
Width : 1 920 pixels
Height : 1 080 pixels
Display aspect ratio : 16:9
Frame rate mode : Constant
Frame rate : 23.976 (24000/1001) FPS
Color space : YUV
Chroma subsampling : 4:2:0
Bit depth : 8 bits
Scan type : Progressive
Bits/(Pixel*Frame) : 0.106
Stream size : 1.53 GiB (93%)
Color range : Limited
Color primaries : BT.709
Transfer characteristics : BT.709
Matrix coefficients : BT.709

Audio
ID : 2
Format : AC-3
Format/Info : Audio Coding 3
Codec ID : A_AC3
Duration : 42 min 45 s
Bit rate mode : Constant
Bit rate : 384 kb/s
Channel(s) : 2 channels
Channel positions : Front: L R
Sampling rate : 48.0 kHz
Frame rate : 31.250 FPS (1536 SPF)
Bit depth : 16 bits
Compression mode : Lossy
Stream size : 117 MiB (7%)
Language : Polish
Service kind : Complete Main

Lista plików Show/Hide [Pokaż/Ukryj]
Trackery
  • udp://tracker.leechers-paradise.org:6969/announce
  • udp://shadowshq.eddie4.nl:6969/announce
  • udp://eddie4.nl:6969/announce
  • http://tracker.vanitycore.co:6969/announce
  • udp://9.rarbg.com:2800/announce
  • udp://9.rarbg.me:2740/announce
  • udp://exodus.desync.com:6969/announce
  • http://agusiq-torrents.pl:6969/announce
  • http://tracker.torrentyorg.pl/announce
  • udp://poloniumsurfer.tk:6969/announce
  • udp://torrent.gresille.org:80/announce
  • http://tracker.filetracker.pl:8089/announce
  • udp://tracker.pomf.se:80/announce
  • udp://10.rarbg.com/announce
  • udp://tracker.openbittorrent.com:80/announce
  • udp://sugoi.pomf.se:80/announce
  • udp://tracker.glotorrents.com:6969/announce
  • http://mgtracker.org:2710/announce
  • udp://tracker.prq.to/announce
  • udp://tracker.torrentbay.to:6969/announce
  • udp://tracker.istole.it:80/announce
  • udp://tracker.publicbt.com/announce
  • udp://t1.pow7.com/announce
  • http://retracker.omsk.ru:2710/announce
  • http://tracker.tfile.me/announce

Brak komentarzy!

Żaden z plików nie znajduje się na serwerze. Torrenty są własnością użytkowników. Administrator serwisu nie może ponieść konsekwencji za to co użytkownicy wstawiają, lub za to co czynią na stronie. Nie możesz używać tego serwisu do rozpowszechniania lub ściągania materiałów do których nie masz odpowiednich praw lub licencji. Użytkownicy odpowiedzialni są za przestrzeganie tych zasad.
Copyright © 2016 Ex-torrentyorgs.com.pl

Najlepsze strony Torrentowe