3D / Horror
Apartament 1303-Apartment 1303 3D (2012)[BDRip 1080p x264 by alE13 AC3][Napisy PL/Eng][Eng]


Dodał: alE13
Data dodania:
2018-03-01 07:53:17
Rozmiar: 6.82 GB
Ostat. aktualizacja:
2018-05-17 18:01:45
Seedów: 8
Peerów: 2


Komentarze: 1

http://i.imgur.com/ZHIvsOp.jpg

http://www.imdb.com/title/tt1540767/
http://www.filmweb.pl/film/Apartment+1303+3D-2012-556309

Film w wersji 3D Half Over/Under
Plik zawiera sample.

reżyseria: Daniel Fridell
scenariusz: Jim SteeleMichael Taverna
gatunek: Horror
produkcja: Kanada,USA
premiera: 06-12-2012
muzyka: John Lissauer
zdjęcia: Paul M. Sommers
czas: 1 h 25 min

opis:

A modern ghost story which turns a love/hate relationship between mother and daughter into a tale
of horror. Some rentals are too good to be true.

24-letnia Janet (Julianne Michelle), z powodu burzliwych relacji z matką Maddie (Rebecca De Mornay),
opuszcza rodzinny dom i wynajmuje apartament w centrum miasta. Wkrótce po przeprowadzce Janet dostrzega
niepokojące wydarzenia mające miejsce w nowym mieszkaniu. Dodatkowo sąsiadka Emily (Madison McAleer)
opowiada jej historię byłej lokatorki, która popełniła samobójstwo, wyskakując z balkonu.

http://i.imgur.com/zP3zVIU.jpg
http://i.imgur.com/yRplgVH.jpg
http://i.imgur.com/JeYMTgP.jpg
http://i.imgur.com/o33wiGH.jpg

obsada:

Mischa Barton, Julianne Michelle, Rebecca De Mornay

dane techniczne:

Apartment 1303 3D (2012)-alE13.mkv
Format : Matroska
Format version : Version 4 / Version 2
File size : 6.22 GiB
Duration : 1 h 25 min
Overall bit rate : 10.4 Mb/s
Movie name : Apartment1303 3D (2012)-alE13
Encoded date : UTC 2018-03-01 06:15:14
Writing application : mkvmerge v8.1.0 ('Psychedelic Postcard') 64bit
Writing library : libebml v1.3.1 + libmatroska v1.4.2
Cover : Yes
Attachments : Cover.jpg

Video
ID : 1
Format : AVC
Format/Info : Advanced Video Codec
Format profile : High@L4.1
Format settings, CABAC : Yes
Format settings, ReFrames : 2 frames
Codec ID : V_MPEG4/ISO/AVC
Duration : 1 h 25 min
Bit rate : 9 795 kb/s
Width : 1 920 pixels
Height : 1 080 pixels
Display aspect ratio : 16:9
Frame rate mode : Constant
Frame rate : 23.976 (24000/1001) FPS
Color space : YUV
Chroma subsampling : 4:2:0
Bit depth : 8 bits
Scan type : Progressive
Bits/(Pixel*Frame) : 0.197
Stream size : 5.83 GiB (94%)
Writing library : x264 core 142
Default : Yes
Forced : No
Color range : Limited
Color primaries : BT.709
Transfer characteristics : BT.709
Matrix coefficients : BT.709

Audio
ID : 2
Format : AC-3
Format/Info : Audio Coding 3
Mode extension : CM (complete main)
Format settings, Endianness : Big
Codec ID : A_AC3
Duration : 1 h 25 min
Bit rate mode : Constant
Bit rate : 640 kb/s
Channel(s) : 6 channels
Channel positions : Front: L C R, Side: L R, LFE
Sampling rate : 48.0 kHz
Frame rate : 31.250 FPS (1536 spf)
Compression mode : Lossy
Stream size : 390 MiB (6%)
Language : English
Default : No
Forced : No

Text #1
ID : 3
Format : UTF-8
Codec ID : S_TEXT/UTF8
Codec ID/Info : UTF-8 Plain Text
Duration : 1 h 18 min
Bit rate : 36 b/s
Count of elements : 625
Stream size : 20.9 KiB (0%)
Title : Apartament 1303 3D (2012)-alE13
Language : Polish
Default : Yes
Forced : No

Text #2
ID : 4
Format : UTF-8
Codec ID : S_TEXT/UTF8
Codec ID/Info : UTF-8 Plain Text
Duration : 1 h 22 min
Bit rate : 45 b/s
Count of elements : 1024
Stream size : 27.5 KiB (0%)
Title : Apartament 1303 3D (2012)-alE13
Language : English
Default : No
Forced : No

Menu
00:00:00.000 : en:1
00:05:47.012 : en:2
00:11:42.285 : en:3
00:18:30.318 : en:4
00:22:51.704 : en:5
00:29:48.870 : en:6
00:36:12.587 : en:7
00:43:00.911 : en:8
00:49:26.297 : en:9
00:54:54.875 : en:10

Lista plików Show/Hide [Pokaż/Ukryj]
Trackery
  • udp://tracker.leechers-paradise.org:6969/announce
  • udp://tracker.opentrackr.org:1337/announce
  • udp://inferno.demonoid.pw:3391/announce
  • udp://tracker.coppersurfer.tk:6969/announce
  • http://tracker.torrentyorg.pl/announce
  • udp://p4p.arenabg.ch:1337/announce
  • http://tracker.devil-torrents.pl/announce
  • udp://tracker.ilibr.org:80/announce

<< Poprzednia      Następna >>
1 - 1

Dodał: luis20077777 Data: 2018-03-01 14:54:58

Wielkie dzięki za film . oby więcej horrorów w 3D POZDRAWIAM

1 - 1
<< Poprzednia      Następna >>

Żaden z plików nie znajduje się na serwerze. Torrenty są własnością użytkowników. Administrator serwisu nie może ponieść konsekwencji za to co użytkownicy wstawiają, lub za to co czynią na stronie. Nie możesz używać tego serwisu do rozpowszechniania lub ściągania materiałów do których nie masz odpowiednich praw lub licencji. Użytkownicy odpowiedzialni są za przestrzeganie tych zasad.
Copyright © 2016 Ex-torrentyorgs.com.pl

Najlepsze strony Torrentowe