x265 / Koncert
Pink Floyd: Delicate Sound of Thunder (1989)[BDRip 1080p HEVC 8 Bit [Laserdisc Transfer][PCM/DTS][Eng]


Dodał: alE13
Data dodania:
2018-03-04 08:23:37
Rozmiar: 10.13 GB
Ostat. aktualizacja:
2018-06-19 01:47:35
Seedów: 35
Peerów: 75


Komentarze: 3

http://i.imgur.com/lxIYoWv.jpg

Plik zawiera Sample.

premiera: 1989
gatunek: Koncert, Progressive Rock
wytwórnia: CBS/SONY Group
reżyseria: Wayne Isham
producent: Curt Marvis & Carl Wayant
czas: 1:31:32

opis:

Delicate Sound of Thunder is a Pink Floyd concert video taken from A Momentary Lapse of Reason Tour.
It was largely filmed during the concerts running from 19 August 1988 through 23 August 1988 at the
Nassau Coliseum in Uniondale, New York, with some additional footage from 21–22 June 1988 at the
Place d'Armes of the Château de Versailles, Versailles, France (used to provide the performance of
"The Great Gig in the Sky". Note that the Versailles show was only used for some of the video footage.
The audio is from Nassau). It was released on VHS and Laserdisc formats.

Delicate Sound of Thunder – zapis trasy koncertowej zespołu Pink Floyd, promującej album

A Momentary Lapse of Reason – album brytyjskiej grupy rockowej Pink Floyd. Nagrany został
w pierwszej połowie 1987 roku, a wydany 8 września 1987. Jest to pierwszy album Pink Floyd
nagrany bez długoletniego lidera zespołu, basisty Rogera Watersa, stąd dominacja kompozytorska
Davida Gilmoura. W pracach nad płytą wziął udział powracający do zespołu Richard Wright, lecz
jedynie na prawach muzyka sesyjnego.

http://i.imgur.com/UvUbOXA.jpg
http://i.imgur.com/W0lus9B.jpg
http://i.imgur.com/1nUMeKC.jpg
http://i.imgur.com/rX2TdLq.jpg

obsada:

Pink Floyd:

David Gilmour, Nick Mason, Richard Wright and more...

tracklist:

-Start Program
-Shine On You Crazy Diamond (Intro)
-Signs Of Life
-Learning To Fly
-Sorrow
-The Dogs Of War
-On The Turning Away
-One Of These Days
-Time
-On The Run
-The Great Gig In The Sky
-Wish You Were Here
-Us & Them
-Comfortably Numb
-One Slip
-Run Like Hell
-Shine On (Reprise) (End Credits)

dane techniczne:

Pink Floyd- Delicate Sound of Thunder (Laserdisc Transfer) 1989 HEVC.mkv
Format : Matroska
Format version : Version 4 / Version 2
File size : 10.1 GiB
Duration : 1 h 31 min
Overall bit rate : 15.7 Mb/s
Movie name : Pink Floyd: Delicate Sound of Thunder (1989)
Encoded date : UTC 2018-03-04 07:06:04
Writing application : mkvmerge v8.1.0 ('Psychedelic Postcard') 64bit
Writing library : libebml v1.3.1 + libmatroska v1.4.2
Cover : Yes
Attachments : Cover.jpg

Video
ID : 1
Format : HEVC
Format/Info : High Efficiency Video Coding
Format profile : Main@L4.1@High
Codec ID : V_MPEGH/ISO/HEVC
Duration : 1 h 31 min
Bit rate : 5 017 kb/s
Width : 1 384 pixels
Height : 1 064 pixels
Display aspect ratio : 4:3
Frame rate mode : Constant
Frame rate : 29.970 (30000/1001) FPS
Color space : YUV
Chroma subsampling : 4:2:0
Bit depth : 8 bits
Bits/(Pixel*Frame) : 0.114
Stream size : 3.21 GiB (32%)
Title : Pink Floyd: Delicate Sound of Thunder (1989)
Writing library : x265 2.4+6-fd01abfc7898:[Windows][GCC 6.3.0][64 bit] 8bit+10bit+12bit
Default : Yes
Forced : Yes
Color range : Limited
Matrix coefficients : BT.709

Audio #1
ID : 2
Format : PCM
Codec ID : A_PCM/INT/LIT
Duration : 1 h 31 min
Bit rate mode : Constant
Bit rate : 4 608 kb/s
Channel(s) : 2 channels
Sampling rate : 96.0 kHz
Frame rate : 32.000 FPS (3000 spf)
Bit depth : 24 bits
Stream size : 2.95 GiB (29%)
Title : Pink Floyd: Delicate Sound of Thunder (1989)_PCM
Language : English
Default : Yes
Forced : No

Audio #2
ID : 3
Format : PCM
Codec ID : A_PCM/INT/LIT
Duration : 1 h 31 min
Bit rate mode : Constant
Bit rate : 4 608 kb/s
Channel(s) : 2 channels
Sampling rate : 96.0 kHz
Frame rate : 32.000 FPS (3000 spf)
Bit depth : 24 bits
Stream size : 2.95 GiB (29%)
Title : Pink Floyd: Delicate Sound of Thunder (1989)_PCM
Language : English
Default : No
Forced : No

Audio #3
ID : 4
Format : DTS
Format/Info : Digital Theater Systems
Mode : 16
Format settings, Endianness : Big
Codec ID : A_DTS
Duration : 1 h 31 min
Bit rate mode : Constant
Bit rate : 1 509 kb/s
Channel(s) : 6 channels
Channel positions : Front: L C R, Side: L R, LFE
Sampling rate : 48.0 kHz
Frame rate : 93.750 FPS (512 spf)
Bit depth : 24 bits
Compression mode : Lossy
Stream size : 988 MiB (10%)
Title : Pink Floyd: Delicate Sound of Thunder (1989)_DTS
Default : No
Forced : No

Menu
00:00:00.000 : en:Chapter 1
00:00:41.541 : en:Chapter 2
00:04:33.340 : en:Chapter 3
00:08:03.683 : en:Chapter 4
00:12:47.667 : en:Chapter 5
00:21:42.035 : en:Chapter 6
00:28:58.571 : en:Chapter 7
00:36:52.278 : en:Chapter 8
00:43:19.966 : en:Chapter 9
00:48:26.039 : en:Chapter 10
00:50:39.272 : en:Chapter 11
00:55:20.286 : en:Chapter 12
01:00:06.206 : en:Chapter 13
01:07:42.429 : en:Chapter 14
01:14:57.797 : en:Chapter 15
01:20:48.782 : en:Chapter 16
01:27:40.593 : en:Chapter 17

Lista plików Show/Hide [Pokaż/Ukryj]
Trackery
  • udp://p4p.arenabg.ch:1337/announce
  • udp://inferno.demonoid.pw:3391/announce
  • udp://tracker.coppersurfer.tk:6969/announce
  • udp://tracker.opentrackr.org:1337/announce
  • udp://tracker.leechers-paradise.org:6969/announce
  • http://tracker.torrentyorg.pl/announce
  • http://tracker.devil-torrents.pl/announce
  • udp://tracker.ilibr.org:80/announce

<< Poprzednia      Następna >>
1 - 3

Dodał: wowa Data: 2018-03-05 20:14:00

dzięki wielkie alE

Dodał: alE13 Data: 2018-03-05 21:27:49

Dodał: perceval1974 Data: 2018-03-05 23:24:05

dziękuję bardzo , będzie się słuchało

1 - 3
<< Poprzednia      Następna >>

Żaden z plików nie znajduje się na serwerze. Torrenty są własnością użytkowników. Administrator serwisu nie może ponieść konsekwencji za to co użytkownicy wstawiają, lub za to co czynią na stronie. Nie możesz używać tego serwisu do rozpowszechniania lub ściągania materiałów do których nie masz odpowiednich praw lub licencji. Użytkownicy odpowiedzialni są za przestrzeganie tych zasad.
Copyright © 2018 Ex-torrenty.org

Najlepsze strony Torrentowe