3D / Animowany
Psy i koty: Odwet Kitty -Cats & Dogs: The Revenge of Kitty Galore 3D (2010)[BDRip 1080p x264 by alE13 AC3][Dubbing i Napisy PL/Eng][Eng]


Dodał: alE13
Data dodania:
2018-03-29 20:07:53
Rozmiar: 7.92 GB
Ostat. aktualizacja:
2018-07-07 01:45:33
Seedów: 6
Peerów: 8


Komentarze: 0

http://i.imgur.com/z77pd9H.jpg

http://www.imdb.com/title/tt1287468/
http://www.filmweb.pl/film/Psy+i+koty%3A+Odwet+Kitty-2010-500926

Plik zawiera Sample, więc najpierw to ściągnij i sprawdź obraz.

reżyseria: Brad Peyton
scenariusz: Ron J. Friedman, Steve Bencich
gatunek: Familijny, Komedia, Akcja
produkcja: Australia, USA
premiera: 29-07-2010
muzyka: Christopher Lennertz
zdjęcia: Steven Poster
czas: 1 h 22 min

opis:

The ongoing war between the canine and feline species is put on hold when they join forces to thwart a rogue cat spy with her own sinister plans for conquest.

Kontynuacja historii o psach i kotach walczących o dominację nad światem. Tym razem Diggs – policyjny psi wyrzutek – zostaje zwerbowany do walki z przebiegłą
Kitty Galore. Kotka, która chce przejąć władzę, to poważne wyzwanie. Aby ją powstrzymać, Diggs musi jednak najpierw zmierzyć się ze swoimi nieokiełznanymi
instynktami – sukces nie będzie bowiem możliwy bez pomocy Catherine... kociej agentki.

http://i.imgur.com/AwDdQD2.jpg
http://i.imgur.com/HR5ztne.jpg
http://i.imgur.com/VO6u0Z3.jpg
http://i.imgur.com/KRUmPvL.jpg

obsada:

Bette Midler, Chris O'Donnell, Jack McBrayer (voice)

dane techniczne:

Cats & Dogs-The Revenge of Kitty Galore 3D (2010)-alE13.mkv
Format : Matroska
Format version : Version 4 / Version 2
File size : 7.87 GiB
Duration : 1 h 22 min
Overall bit rate : 13.7 Mb/s
Movie name : Cats & Dogs: The Revenge of Kitty Galore 3D (2010)-alE13
Encoded date : UTC 2018-03-29 16:50:28
Writing application : mkvmerge v8.1.0 ('Psychedelic Postcard') 64bit
Writing library : libebml v1.3.1 + libmatroska v1.4.2
Cover : Yes
Attachments : Cover.jpg

Video
ID : 1
Format : AVC
Format/Info : Advanced Video Codec
Format profile : High@L4.1
Format settings, CABAC : Yes
Format settings, ReFrames : 2 frames
Codec ID : V_MPEG4/ISO/AVC
Duration : 1 h 22 min
Bit rate : 12.6 Mb/s
Width : 1 920 pixels
Height : 1 080 pixels
Display aspect ratio : 16:9
Frame rate mode : Constant
Frame rate : 23.976 (24000/1001) FPS
Color space : YUV
Chroma subsampling : 4:2:0
Bit depth : 8 bits
Scan type : Progressive
Bits/(Pixel*Frame) : 0.254
Stream size : 7.24 GiB (92%)
Title : Cats & Dogs: The Revenge of Kitty Galore 3D (2010)-alE13
Writing library : x264 core 142
Default : Yes
Forced : No
Color range : Limited
Color primaries : BT.709
Transfer characteristics : BT.709
Matrix coefficients : BT.709

Audio #1
ID : 2
Format : AC-3
Format/Info : Audio Coding 3
Mode extension : CM (complete main)
Format settings, Endianness : Big
Codec ID : A_AC3
Duration : 1 h 22 min
Bit rate mode : Constant
Bit rate : 640 kb/s
Channel(s) : 6 channels
Channel positions : Front: L C R, Side: L R, LFE
Sampling rate : 48.0 kHz
Frame rate : 31.250 FPS (1536 spf)
Compression mode : Lossy
Stream size : 376 MiB (5%)
Title : Cats & Dogs: The Revenge of Kitty Galore 3D (2010)-alE13_AC3
Language : English
Default : No
Forced : No

Audio #2
ID : 3
Format : AC-3
Format/Info : Audio Coding 3
Mode extension : CM (complete main)
Format settings, Endianness : Big
Codec ID : A_AC3
Duration : 1 h 22 min
Bit rate mode : Constant
Bit rate : 448 kb/s
Channel(s) : 6 channels
Channel positions : Front: L C R, Side: L R, LFE
Sampling rate : 44.1 kHz
Frame rate : 28.711 FPS (1536 spf)
Compression mode : Lossy
Delay relative to video : 29 ms
Stream size : 264 MiB (3%)
Title : Cats & Dogs: The Revenge of Kitty Galore 3D (2010)-alE13_AC3
Language : Polish
Default : Yes
Forced : No

Text #1
ID : 4
Format : UTF-8
Codec ID : S_TEXT/UTF8
Codec ID/Info : UTF-8 Plain Text
Duration : 1 h 21 min
Bit rate : 76 b/s
Count of elements : 1101
Stream size : 45.5 KiB (0%)
Title : Cats & Dogs: The Revenge of Kitty Galore 3D (2010)-alE13
Language : Polish
Default : No
Forced : No

Text #2
ID : 5
Format : UTF-8
Codec ID : S_TEXT/UTF8
Codec ID/Info : UTF-8 Plain Text
Duration : 1 h 21 min
Bit rate : 77 b/s
Count of elements : 1294
Stream size : 46.3 KiB (0%)
Title : Cats & Dogs: The Revenge of Kitty Galore 3D (2010)-alE13
Language : English
Default : No
Forced : No

Menu
00:00:00.000 : en:1
00:09:00.123 : en:2
00:20:00.407 : en:3
00:29:48.787 : en:4
00:39:08.805 : en:5
00:49:21.292 : en:6
00:58:28.088 : en:7
01:04:54.641 : en:8
01:12:44.944 : en:9
01:16:25.247 : en:10

Lista plików Show/Hide [Pokaż/Ukryj]
Trackery
  • udp://inferno.demonoid.pw:3391/announce
  • udp://tracker.coppersurfer.tk:6969/announce
  • udp://tracker.opentrackr.org:1337/announce
  • udp://tracker.leechers-paradise.org:6969/announce
  • http://tracker.torrentyorg.pl/announce
  • http://tracker.devil-torrents.pl/announce
  • udp://p4p.arenabg.ch:1337/announce
  • udp://tracker.ilibr.org:80/announce

Brak komentarzy!

Żaden z plików nie znajduje się na serwerze. Torrenty są własnością użytkowników. Administrator serwisu nie może ponieść konsekwencji za to co użytkownicy wstawiają, lub za to co czynią na stronie. Nie możesz używać tego serwisu do rozpowszechniania lub ściągania materiałów do których nie masz odpowiednich praw lub licencji. Użytkownicy odpowiedzialni są za przestrzeganie tych zasad.
Copyright © 2018 Ex-torrentyorgs-com.pl

Najlepsze strony Torrentowe