4K UHD / Horror
Duma i uprzedzenie i zombie/Pride And Prejudice And Zombies 4K (2016)[BDRemuks 2160p x265 HEVC by alE13 AC3/DTS][Lektor i Napisy Eng][Eng]


Dodał: alE13
Data dodania:
2018-04-14 10:14:17
Rozmiar: 50.29 GB
Ostat. aktualizacja:
2018-05-10 22:40:45
Seedów: 12
Peerów: 10


Komentarze: 4

http://i.imgur.com/vtCvbZR.jpg

http://www.imdb.com/title/tt1374989/
http://www.filmweb.pl/film/Duma+i+uprzedzenie%2C+i+zombie-2016-554803

Audio DTS Atmos TrueHD w osobnym pliku.
Plik zawiera Sample, ściągnąć ten plik i sprawdzić, nie pisać głupot
o kolorze to dokładna kopia filmu z dodanym audio pl.


reżyseria: Burr Steers
scenariusz:Burr Steers
gatunek: Horror, Romans
produkcja:USA, Wielka Brytania
premiera: 21-02-2016
muzyka:Fernando Velázquez
zdjęcia:Remi Adefarasin
czas:1h 47min

opis:

Five sisters in 19th century England must cope with the pressures to marry while protecting themselves from a growing population of zombies.

Film opowiada o perypetiach miłosnych sióstr Bennet, podczas gdy w hrabstwie Hertfordshire wylęgają się zombie. Z tego też powodu regiment brytyjskiej
armii zamiast na wojnę z Napoleonem trafiają do hrabstwa, by zwalczyć falę szkodników nie mających tyle dżentelmeńskiej przyzwoitości, by pozostać
spokojnymi trupami na lokalnych cmentarzach.

http://i.imgur.com/YnAQUWj.jpg
http://i.imgur.com/kM9kfWp.jpg
http://i.imgur.com/z77gbIh.jpg
http://i.imgur.com/utIZmLo.jpg

obsada:

Lily James, Sam Riley, Jack Huston

dane techniczne:

Audio:

ID : 1
Format : Atmos / TrueHD
Codec ID : A_TRUEHD
Duration : 1 h 47 min
Bit rate mode : Variable
Bit rate : 4 625 kb/s
Maximum bit rate : 8 193 kb/s
Channel(s) : Object Based / 8 channels
Channel positions : Object Based / Front: L C R, Side: L R, Back: L R, LFE
Sampling rate : / 48.0 kHz
Frame rate : 1 200.000 FPS (40 spf)
Compression mode : Lossless
Stream size : 3.47 GiB (97%)
Title : Pride And Prejudice And Zombies (2016)-alE13_DTS
Language : English
Default : No
Forced : No

Video:

Pride And Prejudice And Zombies (2016)-alE13.mkv
Format : Matroska
Format version : Version 4 / Version 2
File size : 46.6 GiB
Duration : 1 h 47 min
Overall bit rate : 62.1 Mb/s
Movie name : Pride And Prejudice And Zombies (2016)-alE13
Encoded date : UTC 2018-04-14 06:54:27
Writing application : mkvmerge v8.1.0 ('Psychedelic Postcard') 64bit
Writing library : libebml v1.3.1 + libmatroska v1.4.2
Cover : Yes
Attachments : cover.jpg

Video
ID : 1
Format : HEVC
Format/Info : High Efficiency Video Coding
Format profile : Main 10@L5.1@High
Codec ID : V_MPEGH/ISO/HEVC
Duration : 1 h 47 min
Bit rate : 61.2 Mb/s
Width : 3 840 pixels
Height : 2 160 pixels
Display aspect ratio : 16:9
Frame rate mode : Constant
Frame rate : 23.976 (24000/1001) FPS
Color space : YUV
Chroma subsampling : 4:2:0 (Type 2)
Bit depth : 10 bits
Bits/(Pixel*Frame) : 0.308
Stream size : 46.0 GiB (99%)
Title : Pride And Prejudice And Zombies (2016)-alE13
Default : Yes
Forced : No
Color range : Limited
Color primaries : BT.2020
Transfer characteristics : SMPTE ST 2084
Matrix coefficients : BT.2020 non-constant
Mastering display color pri : R: x=0.680000 y=0.320000, G: x=0.265000 y=0.690000, B: x=0.150000 y=0.060000, White point: x=0.312700 y=0.329000
Mastering display luminance : min: 0.0050 cd/m2, max: 4000.0000 cd/m2
Maximum Content Light Level : 1035 cd/m2
Maximum Frame-Average Light : 726 cd/m2

Audio #1
ID : 7
Format : AC-3
Format/Info : Audio Coding 3
Mode extension : CM (complete main)
Format settings, Endianness : Big
Codec ID : A_AC3
Duration : 1 h 2 min
Bit rate mode : Constant
Bit rate : 640 kb/s
Channel(s) : 6 channels
Channel positions : Front: L C R, Side: L R, LFE
Sampling rate : 48.0 kHz
Frame rate : 31.250 FPS (1536 spf)
Compression mode : Lossy
Stream size : 284 MiB (1%)
Title : Pride And Prejudice And Zombies (2016)-alE13
Language : English
Default : No
Forced : No

Audio #2
ID : 8
Format : AC-3
Format/Info : Audio Coding 3
Mode extension : CM (complete main)
Format settings, Endianness : Big
Codec ID : A_AC3
Duration : 1 h 47 min
Bit rate mode : Constant
Bit rate : 384 kb/s
Channel(s) : 6 channels
Channel positions : Front: L C R, Side: L R, LFE
Sampling rate : 48.0 kHz
Frame rate : 31.250 FPS (1536 spf)
Compression mode : Lossy
Stream size : 295 MiB (1%)
Title : Pride And Prejudice And Zombies (2016)-alE13
Language : Polish
Default : Yes
Forced : Yes

Text #1
ID : 2
Format : PGS
Muxing mode : zlib
Codec ID : S_HDMV/PGS
Codec ID/Info : Picture based subtitle format used on BDs/HD-DVDs
Duration : 1 h 46 min
Bit rate : 45.7 kb/s
Count of elements : 2722
Stream size : 34.9 MiB (0%)
Title : Pride And Prejudice And Zombies (2016)-alE13
Language : German
Default : No
Forced : No

Text #2
ID : 3
Format : UTF-8
Codec ID : S_TEXT/UTF8
Codec ID/Info : UTF-8 Plain Text
Duration : 1 min
Bit rate : 8 b/s
Count of elements : 4
Stream size : 121 Bytes (0%)
Title : Pride And Prejudice And Zombies (2016)-alE13_Forced
Language : German
Default : No
Forced : No

Text #3
ID : 4
Format : PGS
Muxing mode : zlib
Codec ID : S_HDMV/PGS
Codec ID/Info : Picture based subtitle format used on BDs/HD-DVDs
Duration : 1 h 46 min
Bit rate : 12.7 kb/s
Count of elements : 2974
Stream size : 9.72 MiB (0%)
Title : Pride And Prejudice And Zombies (2016)-alE13_SDH
Language : English
Default : No
Forced : No

Text #4
ID : 5
Format : PGS
Muxing mode : zlib
Codec ID : S_HDMV/PGS
Codec ID/Info : Picture based subtitle format used on BDs/HD-DVDs
Duration : 1 h 46 min
Bit rate : 10.9 kb/s
Count of elements : 2588
Stream size : 8.34 MiB (0%)
Title : Pride And Prejudice And Zombies (2016)-alE13
Language : English
Default : No
Forced : No

Text #5
ID : 6
Format : UTF-8
Codec ID : S_TEXT/UTF8
Codec ID/Info : UTF-8 Plain Text
Duration : 1 min
Bit rate : 7 b/s
Count of elements : 2
Stream size : 106 Bytes (0%)
Title : Pride And Prejudice And Zombies (2016)-alE13_Forced
Language : English
Default : No
Forced : No

Menu
00:00:00.000 : en:Chapter 01
00:06:41.192 : en:Chapter 02
00:11:50.209 : en:Chapter 03
00:17:59.995 : en:Chapter 04
00:24:06.194 : en:Chapter 05
00:31:53.036 : en:Chapter 06
00:37:43.219 : en:Chapter 07
00:44:22.242 : en:Chapter 08
00:52:06.623 : en:Chapter 09
00:59:28.606 : en:Chapter 10
01:05:44.941 : en:Chapter 11
01:11:16.981 : en:Chapter 12
01:18:40.674 : en:Chapter 13
01:25:03.348 : en:Chapter 14
01:30:18.162 : en:Chapter 15
01:35:49.702 : en:Chapter 16

Lista plików Show/Hide [Pokaż/Ukryj]
Trackery
  • udp://tracker.leechers-paradise.org:6969/announce
  • udp://tracker.coppersurfer.tk:6969/announce
  • udp://tracker.opentrackr.org:1337/announce
  • udp://inferno.demonoid.pw:3391/announce
  • http://tracker.torrentyorg.pl/announce
  • http://tracker.devil-torrents.pl/announce
  • udp://tracker.ilibr.org:80/announce
  • udp://p4p.arenabg.ch:1337/announce

<< Poprzednia      Następna >>
1 - 4

Dodał: wlodarek22pl Data: 2018-04-22 00:37:00

Witam potrzebuje pomocy . Nie wiem jak odtworzyc te filmy mam je nagrane na dysk jiz wybrane te pliki o najwiekszej wadze tv widzi ze to plik m2ts i gdy go wciskam  to nic sie nie dzieje wlacza sie tylko koleczko ladowania a po chwili dopiero ze nie rozpoznano pliku. Wie ktos moze jak sobie z tym poradzic ? Tv to Oled c7v

Dodał: microays Data: 2018-04-24 11:16:36

CyberLink PowerDVD Ultra

Dodał: bochen20000 Data: 2018-05-16 17:56:27

A kodeki masz odpowiednie to też jest ważne!!

Dodał: radek3231 Data: 2018-05-24 08:09:08

Wielkie Dzięki!!!

1 - 4
<< Poprzednia      Następna >>

Żaden z plików nie znajduje się na serwerze. Torrenty są własnością użytkowników. Administrator serwisu nie może ponieść konsekwencji za to co użytkownicy wstawiają, lub za to co czynią na stronie. Nie możesz używać tego serwisu do rozpowszechniania lub ściągania materiałów do których nie masz odpowiednich praw lub licencji. Użytkownicy odpowiedzialni są za przestrzeganie tych zasad.
Copyright © 2018 Ex-torrenty.org

Najlepsze strony Torrentowe