TV / Horror
Fear the Walking Dead S04E04 - Buried [1080p.iT.WEB-DL.H.264.AC3] [Lektor PL] [ENG+Napisy PL]


Dodał: Lukarusi
Data dodania:
2018-05-15 16:22:53
Rozmiar: 1.93 GB
Ostat. aktualizacja:
2018-05-29 19:37:37
Seedów: 48
Peerów: 34


Komentarze: 1

Info:

produkcja: USA
gatunek: Horror, Dramat
reżyseria: Dan Liu, Magnus Martens, John Polson
scenariusz: Robert Kirkman, Dave Erickson
zdjęcia: Adam Suschitzky
muzyka: Danny Bensi, Saunder Jurriaans
czas trwania: ok. 46 min.

Opis:

Spin-off serialu "The Walking Dead", opowiadający o początkach epidemii zombie w Los Angeles.

Obsada:

Kim Dickens - Madison Clark
Alycia Debnam-Carey - Alicia Clark
Frank Dillane - Nick Clark
Mercedes Mason - Ofelia Salazar
Colman Domingo - Victor Strand
Rubén Blades - Daniel Salazar
Cliff Curtis - Travis Manawa
Danay Garcia - Luciana Galvez
Lennie James - Morgan Jones
Jenna Elfman - Naomi

Dane techniczne:

Format : Matroska
Format version : Version 4 / Version 2
File size : 1.93 GiB
Duration : 46 min 32 s
Overall bit rate : 5 950 kb/s
Encoded date : UTC 2018-05-15 14:09:04

Video
ID : 1
Format : AVC
Format/Info : Advanced Video Codec
Format profile : High@L4
Format settings : CABAC / 4 Ref Frames
Format settings, CABAC : Yes
Format settings, ReFrames : 4 frames
Codec ID : V_MPEG4/ISO/AVC
Duration : 46 min 32 s
Bit rate : 5 180 kb/s
Width : 1 916 pixels
Height : 1 076 pixels
Display aspect ratio : 16:9
Frame rate mode : Constant
Frame rate : 23.976 (24000/1001) FPS
Color space : YUV
Chroma subsampling : 4:2:0
Bit depth : 8 bits
Scan type : Progressive
Bits/(Pixel*Frame) : 0.105
Stream size : 1.68 GiB (87%)
Color range : Limited
Color primaries : BT.709
Transfer characteristics : BT.709
Matrix coefficients : BT.709

Audio 1
ID : 2
Format : AC-3
Format/Info : Audio Coding 3
Codec ID : A_AC3
Duration : 46 min 32 s
Bit rate mode : Constant
Bit rate : 384 kb/s
Channel(s) : 2 channels
Channel positions : Front: L R
Sampling rate : 48.0 kHz
Frame rate : 31.250 FPS (1536 SPF)
Bit depth : 16 bits
Compression mode : Lossy
Stream size : 128 MiB (6%)
Language : Polish
Service kind : Complete Main
Default : Yes
Forced : Yes

Audio 2
ID : 3
Format : AC-3
Format/Info : Audio Coding 3
Codec ID : A_AC3
Duration : 46 min 32 s
Bit rate mode : Constant
Bit rate : 384 kb/s
Channel(s) : 6 channels
Channel positions : Front: L C R, Side: L R, LFE
Sampling rate : 48.0 kHz
Frame rate : 31.250 FPS (1536 SPF)
Bit depth : 16 bits
Compression mode : Lossy
Stream size : 128 MiB (6%)
Language : English
Service kind : Complete Main
Default : No
Forced : No

Text
ID : 4
Format : UTF-8
Codec ID : S_TEXT/UTF8
Codec ID/Info : UTF-8 Plain Text
Duration : 44 min 54 s
Bit rate : 39 b/s
Count of elements : 341
Stream size : 13.1 KiB (0%)
Language : Polish
Default : No
Forced : No

Lista plików Show/Hide [Pokaż/Ukryj]
Trackery
  • udp://tracker.leechers-paradise.org:6969/announce
  • udp://shadowshq.eddie4.nl:6969/announce
  • udp://eddie4.nl:6969/announce
  • http://tracker.vanitycore.co:6969/announce
  • udp://9.rarbg.com:2800/announce
  • udp://9.rarbg.me:2740/announce
  • http://tracker.torrentyorg.pl/announce
  • udp://torrent.gresille.org:80/announce
  • http://tracker.filetracker.pl:8089/announce
  • udp://tracker.glotorrents.com:6969/announce
  • udp://poloniumsurfer.tk:6969/announce
  • udp://tracker.pomf.se:80/announce
  • udp://10.rarbg.com/announce
  • udp://tracker.openbittorrent.com:80/announce
  • udp://sugoi.pomf.se:80/announce
  • http://tracker.tfile.me/announce
  • http://mgtracker.org:2710/announce
  • udp://tracker.istole.it:80/announce
  • udp://tracker.prq.to/announce
  • udp://tracker.torrentbay.to:6969/announce
  • udp://exodus.desync.com:6969/announce
  • udp://tracker.publicbt.com/announce
  • http://agusiq-torrents.pl:6969/announce
  • http://retracker.omsk.ru:2710/announce
  • udp://t1.pow7.com/announce

<< Poprzednia      Następna >>
1 - 1

Dodał: Sievra77 Data: 2018-05-16 18:19:07

Dzięki.Masz może Supernatural S13 E17 i alej znapisami w 480p?

1 - 1
<< Poprzednia      Następna >>

Żaden z plików nie znajduje się na serwerze. Torrenty są własnością użytkowników. Administrator serwisu nie może ponieść konsekwencji za to co użytkownicy wstawiają, lub za to co czynią na stronie. Nie możesz używać tego serwisu do rozpowszechniania lub ściągania materiałów do których nie masz odpowiednich praw lub licencji. Użytkownicy odpowiedzialni są za przestrzeganie tych zasad.
Copyright © 2018 Ex-torrenty.org

Najlepsze strony Torrentowe