x265 / Western
Młode Strzelby/Young Guns (1988)[BDRip 1080p x265 HEVC by alE13 AC3/Dts][Lektor i Napisy PL/Eng][Eng]


Dodał: alE13
Data dodania:
2018-05-24 10:16:41
Rozmiar: 5.47 GB
Ostat. aktualizacja:
2018-08-09 12:16:46
Seedów: 2
Peerów: 19


Komentarze: 0

http://i.imgur.com/x9LgRrj.jpg

http://www.imdb.com/title/tt0096487/
http://www.filmweb.pl/film/M%C5%82ode+strzelby-1988-7956

Plik zawiera SAMPLE.

reżyseria: Christopher Cain
scenariusz: John Fusco
gatunek: Western
produkcja: USA
premiera: 10-08-1988
muzyka: Anthony Marinelli, Brian Banks
zdjęcia: Dean Semler
czas: 1h 46min

opis:

A group of young gunmen, led by Billy the Kid, become deputies to avenge the murder of the rancher
who became their benefactor. But when Billy takes their authority too far, they become the hunted.

Kiedy z rąk rewolwerowca ginie stary farmer, który udzielił schronienia młodym bandytom, chłopcy
postanawiają go pomścić.

http://i.imgur.com/hP3y3hw.jpg
http://i.imgur.com/rmKAL4T.jpg
http://i.imgur.com/uf1nHUT.jpg
http://i.imgur.com/4mETT2U.jpg

obsada:

Emilio Estevez, Kiefer Sutherland, Lou Diamond Phillips

dane techniczne:

Young Guns (1988)-alE13.mkv
Format : Matroska
Format version : Version 4 / Version 2
File size : 5.42 GiB
Duration : 1 h 46 min
Overall bit rate : 7 262 kb/s
Encoded date : UTC 2018-05-24 05:34:09
Writing application : mkvmerge v8.1.0 ('Psychedelic Postcard') 64bit
Writing library : libebml v1.3.1 + libmatroska v1.4.2
Cover : Yes
Attachments : Cover.jpg

Video
ID : 1
Format : HEVC
Format/Info : High Efficiency Video Coding
Format profile : Main@L4.1@High
Codec ID : V_MPEGH/ISO/HEVC
Duration : 1 h 46 min
Bit rate : 5 498 kb/s
Width : 1 904 pixels
Height : 1 080 pixels
Display aspect ratio : 16:9
Frame rate mode : Constant
Frame rate : 23.976 (23976/1000) FPS
Original frame rate : 23.976 (24000/1001) FPS
Color space : YUV
Chroma subsampling : 4:2:0
Bit depth : 8 bits
Bits/(Pixel*Frame) : 0.112
Stream size : 4.10 GiB (76%)
Title : Young Guns (1988)-alE13
Writing library : x265 2.5+5-0b3ba15b33ea:[Windows][GCC 7.2.0][64 bit] 8bit+10bit+12bit
Default : Yes
Forced : Yes
Color range : Limited
Matrix coefficients : BT.709

Audio #1
ID : 2
Format : DTS
Format/Info : Digital Theater Systems
Format profile : ES Discrete / Core
Codec ID : A_DTS
Duration : 1 h 46 min
Bit rate mode : Constant
Bit rate : 1 509 kb/s
Channel(s) : 7 channels / 6 channels
Channel positions : Front: L C R, Side: L R, Back: C, LFE / Front: L C R, Side: L R, LFE
Sampling rate : 48.0 kHz
Frame rate : 93.750 FPS (512 SPF)
Bit depth : 24 bits
Compression mode : Lossy
Stream size : 1.12 GiB (21%)
Title : Young Guns (1988)-alE13_DTS
Language : English
Default : No
Forced : No

Audio #2
ID : 5
Format : AC-3
Format/Info : Audio Coding 3
Codec ID : A_AC3
Duration : 1 h 46 min
Bit rate mode : Constant
Bit rate : 256 kb/s
Channel(s) : 2 channels
Channel positions : Front: L R
Sampling rate : 44.1 kHz
Frame rate : 28.711 FPS (1536 SPF)
Bit depth : 16 bits
Compression mode : Lossy
Delay relative to video : 750 ms
Stream size : 196 MiB (4%)
Title : Young Guns (1988)-alE13
Language : Polish
Service kind : Complete Main
Default : Yes
Forced : No

Text #1
ID : 3
Format : UTF-8
Codec ID : S_TEXT/UTF8
Codec ID/Info : UTF-8 Plain Text
Duration : 1 h 40 min
Bit rate : 50 b/s
Count of elements : 1070
Stream size : 37.1 KiB (0%)
Title : Young Guns (1988)-alE13
Language : English
Default : No
Forced : No

Text #2
ID : 4
Format : UTF-8
Codec ID : S_TEXT/UTF8
Codec ID/Info : UTF-8 Plain Text
Duration : 1 h 40 min
Bit rate : 48 b/s
Count of elements : 1012
Stream size : 35.9 KiB (0%)
Title : Young Guns (1988)-alE13
Language : English
Default : No
Forced : No

Text #3
ID : 6
Format : UTF-8
Codec ID : S_TEXT/UTF8
Codec ID/Info : UTF-8 Plain Text
Duration : 1 h 42 min
Bit rate : 48 b/s
Count of elements : 893
Stream size : 36.2 KiB (0%)
Title : Young Guns (1988)-alE13
Language : Polish
Default : No
Forced : No

Menu
00:00:00.000 : en:Main Title/Not Another Hanging
00:03:50.063 : en:Flotsam and Jetsam
00:06:59.252 : en:Proper Table Manners
00:10:10.985 : en:"Get Ready for Hell"
00:14:02.174 : en:One of Murphy's Boys
00:15:49.323 : en:"Let's Dance"
00:23:01.755 : en:Ambush/Deputized
00:26:11.069 : en:Their First Arrest
00:31:59.626 : en:A Traitor and a Spy
00:36:49.415 : en:John Kinney vs. Billy the Kid
00:38:28.597 : en:Enlightenment Through Peyote
00:44:25.204 : en:Meet Buckshot Roberts
00:50:09.172 : en:The Last of His Tribe
00:55:37.334 : en:The Meaning of Necessary
01:00:05.560 : en:Fun with Sheriff Brady
01:01:46.703 : en:Getting Some Attention
01:05:43.105 : en:Charlie's Last Wish
01:09:25.525 : en:Half Horse, Half Devil
01:12:52.523 : en:The Test of All Tests
01:17:42.313 : en:Surrender to a Wedding
01:23:32.746 : en:Ready for a Massacre
01:30:53.186 : en:Send in the Troops
01:37:48.810 : en:"Now It's Over"
01:43:09.714 : en:End Credits

Lista plików Show/Hide [Pokaż/Ukryj]
Trackery
  • udp://inferno.demonoid.pw:3391/announce
  • http://tracker.torrentyorg.pl/announce
  • udp://tracker.coppersurfer.tk:6969/announce
  • udp://tracker.opentrackr.org:1337/announce
  • udp://tracker.leechers-paradise.org:6969/announce
  • udp://p4p.arenabg.ch:1337/announce
  • udp://tracker.ilibr.org:80/announce
  • http://tracker.devil-torrents.pl/announce

Brak komentarzy!

Żaden z plików nie znajduje się na serwerze. Torrenty są własnością użytkowników. Administrator serwisu nie może ponieść konsekwencji za to co użytkownicy wstawiają, lub za to co czynią na stronie. Nie możesz używać tego serwisu do rozpowszechniania lub ściągania materiałów do których nie masz odpowiednich praw lub licencji. Użytkownicy odpowiedzialni są za przestrzeganie tych zasad.
Copyright © 2018 Ex-torrentyorgs-com.pl

Najlepsze strony Torrentowe