3D / Sci-Fi
Czarna Pantera / Black Panther *2018* [Multi] [1080p.3D.BluRay.Half-OU.x264.DTS-HD.MA.7.1-FGT] [Dubbing & Napisy PL]


Dodał: piotras78
Data dodania:
2018-05-26 16:48:54
Rozmiar: 25.17 GB
Ostat. aktualizacja:
2018-06-06 17:45:31
Seedów: 58
Peerów: 20


Komentarze: 0

INFO:

Produkcja: USA
Gatunek: Akcja, Sci-Fi
Premiera: 14 lutego 2018 (Polska), 29 stycznia 2018 (świat)
Reżyseria: Ryan Coogler
Scenariusz: Joe Robert Cole, Ryan Coogler

OPIS:

T’Challa po śmierci ojca wraca do rodzinnego kraju, by objąć tron. Wkrótce Wakanda zostaje napadnięta przez dawnego wroga. Młody władca zbiera sojuszników, aby pokonać przeciwnika i ochronić swój lud. Jako Czarna Pantera staje w obronie nie tylko swojej ojczyzny, ale i całego świata.

OBSADA:

Chadwick Boseman .... T`Challa / Czarna Pantera
Michael B. Jordan .... Erik Killmonger
Lupita Nyong`o .... Nakia
Danai Gurira .... Okoye
Martin Freeman .... Everett K. Ross
Angela Bassett .... Ramonda
Forest Whitaker .... Zuri
Andy Serkis .... Ulysses Klaue

DANE TECH:

Video
ID : 1
Format : AVC
Format/Info : Advanced Video Codec
Format profile : [email protected]
Format settings : CABAC / 3 Ref Frames
Format settings, CABAC : Yes
Format settings, ReFrames : 3 frames
Codec ID : V_MPEG4/ISO/AVC
Duration : 2 h 14 min
Bit rate : 16.0 Mb/s
Width : 1 920 pixels
Height : 1 080 pixels
Display aspect ratio : 16:9
Frame rate mode : Constant
Frame rate : 23.976 (24000/1001) FPS
Color space : YUV
Chroma subsampling : 4:2:0
Bit depth : 8 bits
Scan type : Progressive
Bits/(Pixel*Frame) : 0.322
Stream size : 15.0 GiB (59%)
Title : Black.Panther.2018.1080p.3D.BluRay.Half-OU.x264.DTS-HD.MA.7.1-FGT
Writing library : x264 core 148
Encoding settings : cabac=1 / ref=3 / deblock=1:-1:-1 / analyse=0x3:0 / me=hex / subme=5 / psy=1 / psy_rd=1.00:0.00 / mixed_ref=0 / me_range=16 / chroma_me=1 / trellis=1 / 8x8dct=1 / cqm=0 / deadzone=21,11 / fast_pskip=0 / chroma_qp_offset=0 / threads=24 / lookahead_threads=6 / sliced_threads=0 / nr=0 / decimate=1 / interlaced=0 / bluray_compat=0 / constrained_intra=0 / bframes=2 / b_pyramid=0 / b_adapt=1 / b_bias=0 / direct=1 / weightb=0 / open_gop=0 / weightp=0 / keyint=24 / keyint_min=2 / scenecut=40 / intra_refresh=0 / rc=abr / mbtree=0 / bitrate=16000 / ratetol=1.0 / qcomp=0.60 / qpmin=0 / qpmax=69 / qpstep=4 / ip_ratio=1.40 / pb_ratio=1.30 / aq=1:1.00
Default : Yes
Forced : No
Color range : Limited
Color primaries : BT.709
Transfer characteristics : BT.709
Matrix coefficients : BT.709

Audio #1
ID : 2
Format : DTS
Format/Info : Digital Theater Systems
Format profile : MA / Core
Codec ID : A_DTS
Duration : 2 h 14 min
Bit rate mode : Variable / Constant
Bit rate : 4 981 kb/s / 1 509 kb/s
Channel(s) : 8 channels / 6 channels
Channel positions : Front: L C R, Side: L R, Back: L R, LFE / Front: L C R, Side: L R, LFE
Sampling rate : 48.0 kHz
Frame rate : 93.750 FPS (512 SPF)
Bit depth : 24 bits
Compression mode : Lossless / Lossy
Stream size : 4.68 GiB (19%)
Title : Black.Panther.2018.1080p.3D.BluRay.Half-OU.x264.DTS-HD.MA.7.1-FGT
Language : English
Default : Yes
Forced : No

Audio #2
ID : 3
Format : DTS
Format/Info : Digital Theater Systems
Codec ID : A_DTS
Duration : 2 h 14 min
Bit rate mode : Constant
Bit rate : 1 509 kb/s
Channel(s) : 6 channels
Channel positions : Front: L C R, Side: L R, LFE
Sampling rate : 48.0 kHz
Frame rate : 93.750 FPS (512 SPF)
Bit depth : 24 bits
Compression mode : Lossy
Stream size : 1.42 GiB (6%)
Title : Black.Panther.2018.1080p.3D.BluRay.Half-OU.x264.DTS-HD.MA.7.1-FGT
Language : English
Default : No
Forced : No

Audio #3
ID : 4
Format : E-AC-3
Format/Info : Enhanced Audio Coding 3
Codec ID : A_EAC3
Duration : 2 h 14 min
Bit rate mode : Constant
Bit rate : 500 b/s
Channel(s) : 6 channels
Channel positions : Front: L C R, Side: L R, LFE
Sampling rate : 48.0 kHz
Frame rate : 187.500 FPS (256 SPF)
Compression mode : Lossy
Stream size : 862 MiB (3%)
Title : Black.Panther.2018.1080p.3D.BluRay.Half-OU.x264.DTS-HD.MA.7.1-FGT
Language : Italian
Service kind : Complete Main
Default : No
Forced : No

Audio #4
ID : 5
Format : DTS
Format/Info : Digital Theater Systems
Codec ID : A_DTS
Duration : 2 h 14 min
Bit rate mode : Constant
Bit rate : 1 509 kb/s
Channel(s) : 6 channels
Channel positions : Front: L C R, Side: L R, LFE
Sampling rate : 48.0 kHz
Frame rate : 93.750 FPS (512 SPF)
Bit depth : 24 bits
Compression mode : Lossy
Stream size : 1.42 GiB (6%)
Title : Black.Panther.2018.1080p.3D.BluRay.Half-OU.x264.DTS-HD.MA.7.1-FGT
Language : Spanish
Default : No
Forced : No

Audio #5
ID : 6
Format : AC-3
Format/Info : Audio Coding 3
Codec ID : A_AC3
Duration : 2 h 14 min
Bit rate mode : Constant
Bit rate : 640 kb/s
Channel(s) : 6 channels
Channel positions : Front: L C R, Side: L R, LFE
Sampling rate : 48.0 kHz
Frame rate : 31.250 FPS (1536 SPF)
Bit depth : 16 bits
Compression mode : Lossy
Stream size : 616 MiB (2%)
Title : Black.Panther.2018.1080p.3D.BluRay.Half-OU.x264.DTS-HD.MA.7.1-FGT
Language : Czech
Service kind : Complete Main
Default : No
Forced : No

Audio #6
ID : 7
Format : AC-3
Format/Info : Audio Coding 3
Codec ID : A_AC3
Duration : 2 h 14 min
Bit rate mode : Constant
Bit rate : 640 kb/s
Channel(s) : 6 channels
Channel positions : Front: L C R, Side: L R, LFE
Sampling rate : 48.0 kHz
Frame rate : 31.250 FPS (1536 SPF)
Bit depth : 16 bits
Compression mode : Lossy
Stream size : 616 MiB (2%)
Title : Black.Panther.2018.1080p.3D.BluRay.Half-OU.x264.DTS-HD.MA.7.1-FGT
Language : Polish
Service kind : Complete Main
Default : No
Forced : No

Audio #7
ID : 8
Format : AC-3
Format/Info : Audio Coding 3
Codec ID : A_AC3
Duration : 2 h 14 min
Bit rate mode : Constant
Bit rate : 640 kb/s
Channel(s) : 6 channels
Channel positions : Front: L C R, Side: L R, LFE
Sampling rate : 48.0 kHz
Frame rate : 31.250 FPS (1536 SPF)
Bit depth : 16 bits
Compression mode : Lossy
Stream size : 616 MiB (2%)
Title : Black.Panther.2018.1080p.3D.BluRay.Half-OU.x264.DTS-HD.MA.7.1-FGT
Language : Russian
Service kind : Complete Main
Default : No
Forced : No

Text #1
ID : 9
Format : PGS
Muxing mode : zlib
Codec ID : S_HDMV/PGS
Codec ID/Info : Picture based subtitle format used on BDs/HD-DVDs
Duration : 2 h 14 min
Bit rate : 60.6 kb/s
Count of elements : 3670
Stream size : 58.2 MiB (0%)
Title : English-PGS
Language : English
Default : Yes
Forced : No

Text #2
ID : 10
Format : PGS
Muxing mode : zlib
Codec ID : S_HDMV/PGS
Codec ID/Info : Picture based subtitle format used on BDs/HD-DVDs
Duration : 2 h 14 min
Bit rate : 50.7 kb/s
Count of elements : 2904
Stream size : 48.7 MiB (0%)
Title : Italian-PGS
Language : Italian
Default : No
Forced : No

Text #3
ID : 11
Format : PGS
Muxing mode : zlib
Codec ID : S_HDMV/PGS
Codec ID/Info : Picture based subtitle format used on BDs/HD-DVDs
Duration : 2 h 14 min
Bit rate : 48.4 kb/s
Count of elements : 2894
Stream size : 46.5 MiB (0%)
Title : Spanish-PGS
Language : Spanish
Default : No
Forced : No

Text #4
ID : 12
Format : PGS
Muxing mode : zlib
Codec ID : S_HDMV/PGS
Codec ID/Info : Picture based subtitle format used on BDs/HD-DVDs
Duration : 2 h 14 min
Bit rate : 45.0 kb/s
Count of elements : 2902
Stream size : 43.2 MiB (0%)
Title : Czech-PGS
Language : Czech
Default : No
Forced : No

Text #5
ID : 13
Format : PGS
Muxing mode : zlib
Codec ID : S_HDMV/PGS
Codec ID/Info : Picture based subtitle format used on BDs/HD-DVDs
Duration : 2 h 14 min
Bit rate : 44.0 kb/s
Count of elements : 2874
Stream size : 42.2 MiB (0%)
Title : Polish-PGS
Language : Polish
Default : No
Forced : No

Menu
00:00:00.000 : en01)00:00:00:000
00:06:56.290 : en02)00:06:56:290
00:12:02.805 : en03)00:12:02:805
00:19:12.359 : en04)00:19:12:359
00:28:32.961 : en05)00:28:32:961
00:33:11.698 : en06)00:33:11:698
00:40:57.496 : en07)00:40:57:496
00:48:34.036 : en000:48:34:036
00:53:46.097 : en09)00:53:46:097
01:01:57.338 : en10)01:01:57:338
01:08:33.025 : en11)01:08:33:025
01:16:46.768 : en12)01:16:46:768
01:22:24.022 : en13)01:22:24:022
01:31:21.434 : en14)01:31:21:434
01:41:15.360 : en15)01:41:15:360
01:50:56.483 : en16)01:50:56:483
01:59:16.941 : en17)01:59:16:941
02:02:43.647 : en102:02:43:647
02:14:32.898 : en19)02:14:32:898

Lista plików Show/Hide [Pokaż/Ukryj]
Trackery
  • udp://9.rarbg.to:2710/announce
  • udp://9.rarbg.me:2710/announce
  • http://tracker.trackerfix.com:80/announce

Brak komentarzy!

Żaden z plików nie znajduje się na serwerze. Torrenty są własnością użytkowników. Administrator serwisu nie może ponieść konsekwencji za to co użytkownicy wstawiają, lub za to co czynią na stronie. Nie możesz używać tego serwisu do rozpowszechniania lub ściągania materiałów do których nie masz odpowiednich praw lub licencji. Użytkownicy odpowiedzialni są za przestrzeganie tych zasad.
Copyright © 2016 Ex-torrentyorgs.com.pl

Najlepsze strony Torrentowe